The Road (2009) 720p BDRip Dual Latino-Inglés [Subt. Esp] (Drama)

Maestro Revolver

Well-known member
Miembro del Staff
Administrador
Registro
9 Ago 2012
Mensajes
3.567








TÍTULO ORIGINAL: The Road
AÑO: 2009
DURACIÓN: 112 min.
PAÍS: USA
DIRECTOR: John Hillcoat
GUIÓN: Joe Penhall (Novela: Cormac McCarthy)
REPARTO: Viggo Mortensen, Kodi Smit-McPhee, Charlize Theron, Robert Duvall, Guy Pearce, Molly Parker, Michael K. Williams, Garret Dillahunt
PRODUCTORA: Dimension Films / 2929 Productions
GÉNERO: Drama | Futuro postapocalíptico. Supervivencia. Road Movie
: http://www.imdb.com/title/tt0898367/

Premios: 2009: Festival de Venecia: Sección oficial largometrajes a concurso
2009: Nominada Premios BAFTA: Mejor fotografía
2009: 3 nominaciones Critics' Choice Awards: Mejor actor, intérprete joven y maquillaje






El planeta ha sido arrasado por un misterioso cataclismo y, en medio de la desolación, un padre y su hijo se dirigen hacia la costa en busca de un lugar seguro donde asentarse. Durante el viaje se cruzarán con otros supervivientes: unos se han vuelto locos, otros se han convertido en caníbales. Adaptación de una novela de Cormac McCarthy, autor de "No es país para viejos".




















La pelicula NO tiene ninguna marca... solo colocamos el nombre de esta web en las capturas






Código:
General
Format                                   : Matroska
Format version                           : Version 2
File size                                : 2.88 GiB
Duration                                 : 1h 51mn
Overall bit rate                         : 3 697 Kbps
Movie name                               : www.club-hd.com
Encoded date                             : UTC 2013-10-17 02:22:58
Writing application                      : mkvmerge v5.7.0 ('The Whirlwind') built on Jul  8 2012 20:08:51
Writing library                          : libebml v1.2.3 + libmatroska v1.3.0

Video
ID                                       : 1
Format                                   : AVC
Format/Info                              : Advanced Video Codec
Format profile                           : High@L4.1
Format settings, CABAC                   : Yes
Format settings, ReFrames                : 12 frames
Codec ID                                 : V_MPEG4/ISO/AVC
Duration                                 : 1h 51mn
Bit rate                                 : 2 800 Kbps
Width                                    : 1 280 pixels
Height                                   : 544 pixels
Display aspect ratio                     : 2.35:1
Frame rate mode                          : Constant
Frame rate                               : 23.976 fps
Color space                              : YUV
Chroma subsampling                       : 4:2:0
Bit depth                                : 8 bits
Scan type                                : Progressive
Bits/(Pixel*Frame)                       : 0.168
Stream size                              : 2.13 GiB (74%)
Title                                    : www.club-hd.com
Writing library                          : x264 core 132 r2310 76a5c3a
Language                                 : English
Default                                  : Yes
Forced                                   : No

Audio #1
ID                                       : 2
Format                                   : AC-3
Format/Info                              : Audio Coding 3
Mode extension                           : CM (complete main)
Format settings, Endianness              : Big
Codec ID                                 : A_AC3
Duration                                 : 1h 51mn
Bit rate mode                            : Constant
Bit rate                                 : 256 Kbps
Channel(s)                               : 2 channels
Channel positions                        : Front: L R
Sampling rate                            : 48.0 KHz
Bit depth                                : 16 bits
Compression mode                         : Lossy
Delay relative to video                  : 300ms
Stream size                              : 204 MiB (7%)
Title                                    : www.club-hd.com  >>  Latino
Language                                 : Spanish
Default                                  : Yes
Forced                                   : No

Audio #2
ID                                       : 3
Format                                   : AC-3
Format/Info                              : Audio Coding 3
Mode extension                           : CM (complete main)
Format settings, Endianness              : Big
Codec ID                                 : A_AC3
Duration                                 : 1h 51mn
Bit rate mode                            : Constant
Bit rate                                 : 640 Kbps
Channel(s)                               : 6 channels
Channel positions                        : Front: L C R, Side: L R, LFE
Sampling rate                            : 48.0 KHz
Bit depth                                : 16 bits
Compression mode                         : Lossy
Stream size                              : 511 MiB (17%)
Title                                    : www.club-hd.com  >>  Inglés
Language                                 : English
Default                                  : No
Forced                                   : No

Text
ID                                       : 4
Format                                   : UTF-8
Codec ID                                 : S_TEXT/UTF8
Codec ID/Info                            : UTF-8 Plain Text
Language                                 : Spanish
Default                                  : No
Forced                                   : No

Menu
00:00:00.000                             : en:00:00:00.000
00:07:57.268                             : en:00:07:57.268
00:12:02.764                             : en:00:12:02.764
00:17:43.104                             : en:00:17:43.104
00:24:11.492                             : en:00:24:11.492
00:33:38.058                             : en:00:33:38.058
00:37:43.386                             : en:00:37:43.386
00:44:44.265                             : en:00:44:44.265
00:52:11.962                             : en:00:52:11.962
00:59:29.983                             : en:00:59:29.983
01:06:34.824                             : en:01:06:34.824
01:11:30.703                             : en:01:11:30.703
01:20:14.852                             : en:01:20:14.852
01:25:57.194                             : en:01:25:57.194
01:31:05.627                             : en:01:31:05.627
01:36:36.916                             : en:01:36:36.916








Enlaces de Mega y Google Drive solo disponibles para Miembros VIP

Compra tu Membresía VIP y apoya a Club-HD!

ATENCIÓN! Tenemos TODO el material de Club-HD disponible por Mega y Google Drive, enlaces 100% activos y online hasta la fecha

Llévate tus cuentas Mega PRO III gratis con tu membresía VIP!
Todos los posts vivos con links de Mega y Google Drive.
Todo el material de Club-HD desbloqueado y sin publicidad.

Click Aquí para más información.



Para ver este contenido oculto, debes dar click en una de las siguientes reacciones : Like Like, Love Love, Haha Haha, Wow Wow, Sad Sad, Angry Angry

 
Última edición por un moderador:

Usuarios Que Están Viendo Este Tema (Total: 1, Miembros: 0, Invitados: 1)

Quién Leyó Este Tema (Total Miembros: 3)

Arriba