The Rolling Stones – Ladies & Gentlemen (2010) 1080p BDRip [AC3 - DTS 5.1] (Concierto)

Maestro Revolver

Administrador
Registro
9 Ago 2012
Mensajes
3.157
Reacciones (ptje)
55.041

The-rolling-stones-Ladies-&-gentlemen.jpg





Sinopsis.jpg


El legendario concierto de la película “Ladies & Gentlemen … The Rolling Stones” ha sido totalmente restaurado y remasterizado de la impresión de la película original y de los masters de audio multipista y ahora por fin recibe su primera versión autorizada en DVD y Blu-ray.La pelicula fue rodada en Texas en 1972 en más de cuatro noches de la gira Exile On Main Street que giró por EE.UU. Se estrenó en el Teatro Ziegfield en Nueva York el 15 de abril de 1974 y emitida en cines seleccionados a través de los EE.UU. poco después.Había sido presentada en su momento como “La película de rock más potente que jamás se ha hecho…” y es considerado por muchos fans de la banda como el mejor rendimiento de The Rolling Stones jamás filmado.



Track List:

01 - Intro
02 - Brown sugar
03 - Bitch
04 - Gimme shelter
05 - Dead flowers
06 - Happy
07 - Tumbling dice
08 - Love in vain
09 - Sweet Virginia
10 - You can't always get what you want
11 - All down the line
12 - Midnight rambler
13 - Bye bye Johnny
14 - Rip this joint
15 - Jumpin' Jack flash
16 - Street fighting man
17 - Créditos




Trailer.jpg






Capturas.jpg


1.jpg


2.jpg


3.jpg


4.jpg


5.jpg


6.jpg





MediaInfo.jpg


Código:
General
Format                                   : Matroska
Format version                           : Version 2
File size                                : 4.74 GiB
Duration                                 : 1h 22mn
Overall bit rate                         : 8 228 Kbps
Movie name                               : www.club-hd.com
Encoded date                             : UTC 2013-07-25 23:54:57
Writing application                      : mkvmerge v5.7.0 ('The Whirlwind') built on Jul  8 2012 20:08:51
Writing library                          : libebml v1.2.3 + libmatroska v1.3.0

Video
ID                                       : 1
Format                                   : AVC
Format/Info                              : Advanced Video Codec
Format profile                           : [email protected]
Format settings, CABAC                   : Yes
Format settings, ReFrames                : 4 frames
Codec ID                                 : V_MPEG4/ISO/AVC
Duration                                 : 1h 22mn
Bit rate                                 : 6 078 Kbps
Width                                    : 1 920 pixels
Height                                   : 1 080 pixels
Display aspect ratio                     : 16:9
Frame rate mode                          : Constant
Frame rate                               : 24.000 fps
Color space                              : YUV
Chroma subsampling                       : 4:2:0
Bit depth                                : 8 bits
Scan type                                : Progressive
Bits/(Pixel*Frame)                       : 0.122
Stream size                              : 3.41 GiB (72%)
Title                                    : www.club-hd.com
Writing library                          : x264 core 119 r2106 07efeb4
Language                                 : English
Default                                  : Yes
Forced                                   : No

Audio #1
ID                                       : 2
Format                                   : AC-3
Format/Info                              : Audio Coding 3
Mode extension                           : CM (complete main)
Format settings, Endianness              : Big
Codec ID                                 : A_AC3
Duration                                 : 1h 22mn
Bit rate mode                            : Constant
Bit rate                                 : 640 Kbps
Channel(s)                               : 6 channels
Channel positions                        : Front: L C R, Side: L R, LFE
Sampling rate                            : 48.0 KHz
Bit depth                                : 16 bits
Compression mode                         : Lossy
Stream size                              : 377 MiB (8%)
Title                                    : AC3
Language                                 : English
Default                                  : Yes
Forced                                   : No

Audio #2
ID                                       : 3
Format                                   : DTS
Format/Info                              : Digital Theater Systems
Mode                                     : 16
Format settings, Endianness              : Big
Codec ID                                 : A_DTS
Duration                                 : 1h 22mn
Bit rate mode                            : Constant
Bit rate                                 : 1 509 Kbps
Channel(s)                               : 6 channels
Channel positions                        : Front: L C R, Side: L R, LFE
Sampling rate                            : 48.0 KHz
Bit depth                                : 16 bits
Compression mode                         : Lossy
Stream size                              : 890 MiB (18%)
Title                                    : DTS
Language                                 : English
Default                                  : No
Forced                                   : No

Menu
00:00:00.000                             : en:01 - Intro
00:03:34.000                             : en:02 - Brown sugar
00:06:55.541                             : en:03 - Bitch
00:11:40.500                             : en:04 - Gimme shelter
00:16:30.000                             : en:05 - Dead flowers
00:20:41.000                             : en:06 - Happy
00:23:48.833                             : en:07 - Tumbling dice
00:28:49.250                             : en:08 - Love in vain
00:35:40.166                             : en:09 - Sweet Virginia
00:40:08.083                             : en:10 - You can't always get what you want
00:47:33.958                             : en:11 - All down the line
00:52:59.208                             : en:12 - Midnight rambler
01:05:43.166                             : en:13 - Bye bye Johnny
01:09:06.000                             : en:14 - Rip this joint
01:11:32.625                             : en:15 - Jumpin' Jack flash
01:15:05.875                             : en:16 - Street fighting man
01:19:54.000                             : en:17 - Créditos




Descarga.jpg



MEGA.jpg

Tenemos TODO el material de Club-HD disponible por Mega, enlaces 100% activos y online hasta la fecha

Llévate tus cuentas Mega PRO III gratis con tu membresía VIP!
Todos los posts vivos con links de Mega.
Todo el material de Club-HD desbloqueado y sin publicidad.

Obtén más información sobre nuestras Membresías VIP



UPLOADED_BANNER.png

Para ver este contenido oculto, debes dar click en el botón"Like", o cualquiera de las otras reacciones:

Me Gusta Me Gusta, Me Encanta Me Encanta, Jaja Jaja, Wow Wow, Triste Triste, Molesto Molesto
 
Última edición por un moderador:
Volver