The Rolling Stones Sweet Summer Sun Hyde Park Live (2013) 720p BDRip [AC3 5.1- DTS] (Concierto)

Maestro Revolver

Well-known member
Miembro del Staff
Administrador
Registro
9 Ago 2012
Mensajes
3.567








Capturado en vivo el verano de 2013 el histórico y triunfante regreso del grupo rock Rolling Stones a Hyde Park fue sin duda alguna el mayor acontecimiento del verano. Más de 100.000 fans de todas las edades llenaron el parque para los dos conciertos espectaculares al aire libre para ver a Keith Jagger, Keith Richards, Charlie Watts y Ronnie Wood hacer lo que mejor saben hacer. También acompañó al grupo durante dos canciones el antiguo guitarrista del grupo, Mick Taylor.



Track List:

1. The Rolling Stones - Start Me Up (4:10)
2. The Rolling Stones - It's Only Rock 'N' Roll (4:46)
3. The Rolling Stones - Tumbling Dice (4:05)
4. The Rolling Stones - Emotional Rescue (5:53)
5. The Rolling Stones - Street Fighting Man (5:22)
6. The Rolling Stones - Ruby Tuesday (3:21)
7. The Rolling Stones - Doom And Gloom (4:17)
8. The Rolling Stones - Paint It Black (5:01)
9. The Rolling Stones - Honky Tonk Women (6:50)
10. The Rolling Stones - You Got The Silver (3:10)
11. The Rolling Stones - Before They Make Me Run (4:13)
12. The Rolling Stones - Miss You (7:52)
13. The Rolling Stones - Midnight Rambler (11:54)
14. The Rolling Stones - Gimme Shelter (7:16)
15. The Rolling Stones - Jumpin' Jack Flash (4:53)
16. The Rolling Stones - Sympathy For The Devil (6:46)
17. The Rolling Stones - Brown Sugar (4:55)
18. The Rolling Stones - You Can't Always Get What You Want (8:04)
19. The Rolling Stones - (I Can't Get No) Satisfaction (8:20)



































Código:
General
Format                                   : Matroska
Format version                           : Version 2
File size                                : 4.90 GiB
Duration                                 : 1h 57mn
Overall bit rate                         : 5 953 Kbps
Movie name                               : www.club-hd.com
Encoded date                             : UTC 2013-12-03 23:14:11
Writing application                      : mkvmerge v5.7.0 ('The Whirlwind') built on Jul  8 2012 20:08:51
Writing library                          : libebml v1.2.3 + libmatroska v1.3.0

Video
ID                                       : 1
Format                                   : AVC
Format/Info                              : Advanced Video Codec
Format profile                           : High@L4.1
Format settings, CABAC                   : Yes
Format settings, ReFrames                : 5 frames
Codec ID                                 : V_MPEG4/ISO/AVC
Duration                                 : 1h 57mn
Bit rate                                 : 4 547 Kbps
Width                                    : 1 280 pixels
Height                                   : 544 pixels
Display aspect ratio                     : 2.35:1
Frame rate mode                          : Constant
Frame rate                               : 29.970 fps
Color space                              : YUV
Chroma subsampling                       : 4:2:0
Bit depth                                : 8 bits
Scan type                                : Progressive
Bits/(Pixel*Frame)                       : 0.218
Stream size                              : 3.64 GiB (74%)
Title                                    : www.club-hd.com
Writing library                          : x264 core 138 r2358 9e941d1
Language                                 : English
Default                                  : Yes
Forced                                   : No

Audio #1
ID                                       : 2
Format                                   : DTS
Format/Info                              : Digital Theater Systems
Mode                                     : 16
Format settings, Endianness              : Big
Codec ID                                 : A_DTS
Duration                                 : 1h 57mn
Bit rate mode                            : Constant
Bit rate                                 : 768 Kbps
Channel(s)                               : 6 channels
Channel positions                        : Front: L C R, Side: L R, LFE
Sampling rate                            : 48.0 KHz
Bit depth                                : 24 bits
Compression mode                         : Lossy
Stream size                              : 647 MiB (13%)
Title                                    : DTS
Language                                 : English
Default                                  : Yes
Forced                                   : No

Audio #2
ID                                       : 3
Format                                   : AC-3
Format/Info                              : Audio Coding 3
Mode extension                           : CM (complete main)
Format settings, Endianness              : Big
Codec ID                                 : A_AC3
Duration                                 : 1h 57mn
Bit rate mode                            : Constant
Bit rate                                 : 640 Kbps
Channel(s)                               : 6 channels
Channel positions                        : Front: L C R, Side: L R, LFE
Sampling rate                            : 48.0 KHz
Bit depth                                : 16 bits
Compression mode                         : Lossy
Stream size                              : 539 MiB (11%)
Title                                    : AC3
Language                                 : English
Default                                  : No
Forced                                   : No

Menu
00:00:00.000                             : en:00:00:00.000
00:04:37.410                             : en:00:04:37.410
00:08:53.666                             : en:00:08:53.666
00:14:07.447                             : en:00:14:07.447
00:19:46.552                             : en:00:19:46.552
00:23:04.617                             : en:00:23:04.617
00:28:14.493                             : en:00:28:14.493
00:29:46.318                             : en:00:29:46.318
00:37:21.506                             : en:00:37:21.506
00:41:14.572                             : en:00:41:14.572
00:45:21.018                             : en:00:45:21.018
00:53:01.879                             : en:00:53:01.879
00:54:24.027                             : en:00:54:24.027
01:06:58.948                             : en:01:06:58.948
01:14:18.354                             : en:01:14:18.354
01:19:43.612                             : en:01:19:43.612
01:26:29.184                             : en:01:26:29.184
01:32:09.257                             : en:01:32:09.257
01:40:24.452                             : en:01:40:24.452
01:43:28.636                             : en:01:43:28.636
01:52:28.241                             : en:01:52:28.241








Enlaces de Mega y Google Drive solo disponibles para Miembros VIP

Compra tu Membresía VIP y apoya a Club-HD!

ATENCIÓN! Tenemos TODO el material de Club-HD disponible por Mega y Google Drive, enlaces 100% activos y online hasta la fecha

Llévate tus cuentas Mega PRO III gratis con tu membresía VIP!
Todos los posts vivos con links de Mega y Google Drive.
Todo el material de Club-HD desbloqueado y sin publicidad.

Click Aquí para más información.



Para ver este contenido oculto, debes dar click en una de las siguientes reacciones : Like Like, Love Love, Haha Haha, Wow Wow, Sad Sad, Angry Angry
 
Última edición por un moderador:

Usuarios Que Están Viendo Este Tema (Total: 1, Miembros: 0, Invitados: 1)

Quién Leyó Este Tema (Total Miembros: 1)

Arriba