The Santa Clause 3: The Escape Clause (2006) m-1080p Dual Latino-Inglés [Subt. Esp-Ing] (Comedia. Infantil)

Maestro Revolver

Administrador
Registro
9 Ago 2012
Mensajes
3.157
Reacciones (ptje)
54.925
Aporte Recuperado gracias a nuestro amigo bielo

santa-3.jpg




FICHA_TECNICA.png


TÍTULO ORIGINAL: The Santa Clause 3: The Escape Clause
AÑO: 2006
DURACIÓN: 98 min.
PAÍS: USA
DIRECTOR: Michael Lembeck
GUIÓN: Ed Decter, John J. Strauss (Personajes: Leo Benvenuti, Steve Rudnick)
REPARTO: Tim Allen, Martin Short, Ann-Margret, Alan Arkin, Wendy Crewson, Kevin Pollak, Judge Reinhold, Charlie Stewart, Eric Lloyd, Elizabeth Mitchell, Liliana Mumy, Spencer Breslin, Aisha Tyler
PRODUCTORA: Walt Disney Pictures
GÉNERO: Comedia. Infantil | Cine familiar. Navidad. Secuela. Viajes en el tiempo
imdb-logo.png
: http://www.imdb.com/title/tt0452681/




SINOPSIS.png


Santa (Tim Allen), también el hombre corriente Scott Calvin, se enfrenta a una doble tarea: cómo mantener unida y feliz a su nueva familia, y cómo parar a Jack Frost (Martin Short) en su vil intento de destruir la Navidad. Aun a riesgo de revelar la ubicación secreta del Polo Norte, Scott invita a sus suegros (Ann-Margret y Alan Arkin) a compartir las vacaciones navideñas con él y su mujer Carol (Elizabeth Mitchell). A esta aventura se une la extensa familia de Scott: su hijo Charlie (Eric Lloyd), su ex mujer Laura Miller (Wendy Crewson), su marido, Neil Miller (Judge Reinhold) y su hija, Lucy (Liliana Mumy), que junto con el elfo Curtis (Spencer Breslin), tratarán de frustrar los planes de Jack Frost para hacerse con el control del Polo Norte...




TRAILER.png






CAPTURAS.png


1.jpg


2.jpg


3.jpg


4.jpg


5.jpg


6.jpg


La pelicula NO tiene ninguna marca... solo colocamos el nombre de esta web en las capturas




DATOS_TECNICOS.png


Código:
General
Format                                   : Matroska
Format version                           : Version 2
File size                                : 3.75 GiB
Duration                                 : 1h 31mn
Overall bit rate                         : 5 836 Kbps
Movie name                               : www.club-hd.com
Encoded date                             : UTC 2012-12-12 22:00:08
Writing application                      : mkvmerge v5.7.0 ('The Whirlwind') built on Jul  8 2012 20:08:51
Writing library                          : libebml v1.2.3 + libmatroska v1.3.0

Video
ID                                       : 1
Format                                   : AVC
Format/Info                              : Advanced Video Codec
Format profile                           : [email protected]
Format settings, CABAC                   : Yes
Format settings, ReFrames                : 4 frames
Codec ID                                 : V_MPEG4/ISO/AVC
Duration                                 : 1h 31mn
Bit rate                                 : 4 600 Kbps
Width                                    : 1 920 pixels
Height                                   : 1 040 pixels
Display aspect ratio                     : 1.85:1
Frame rate mode                          : Constant
Frame rate                               : 23.976 fps
Color space                              : YUV
Chroma subsampling                       : 4:2:0
Bit depth                                : 8 bits
Scan type                                : Progressive
Bits/(Pixel*Frame)                       : 0.096
Stream size                              : 2.85 GiB (76%)
Title                                    : www.club-hd.com
Writing library                          : x264 core 112
Language                                 : English
Default                                  : Yes
Forced                                   : No
Color primaries                          : BT.709
Transfer characteristics                 : BT.709
Matrix coefficients                      : BT.709

Audio #1
ID                                       : 2
Format                                   : AC-3
Format/Info                              : Audio Coding 3
Mode extension                           : CM (complete main)
Format settings, Endianness              : Big
Codec ID                                 : A_AC3
Duration                                 : 1h 31mn
Bit rate mode                            : Constant
Bit rate                                 : 640 Kbps
Channel(s)                               : 6 channels
Channel positions                        : Front: L C R, Side: L R, LFE
Sampling rate                            : 48.0 KHz
Bit depth                                : 16 bits
Compression mode                         : Lossy
Stream size                              : 421 MiB (11%)
Title                                    : www.club-hd.com  >>  Latino
Language                                 : Spanish
Default                                  : Yes
Forced                                   : No

Audio #2
ID                                       : 3
Format                                   : AC-3
Format/Info                              : Audio Coding 3
Mode extension                           : CM (complete main)
Format settings, Endianness              : Big
Codec ID                                 : A_AC3
Duration                                 : 1h 31mn
Bit rate mode                            : Constant
Bit rate                                 : 640 Kbps
Channel(s)                               : 6 channels
Channel positions                        : Front: L C R, Side: L R, LFE
Sampling rate                            : 48.0 KHz
Bit depth                                : 16 bits
Compression mode                         : Lossy
Stream size                              : 421 MiB (11%)
Title                                    : www.club-hd.com  >>  Inglés
Language                                 : English
Default                                  : No
Forced                                   : No

Text #1
ID                                       : 4
Format                                   : UTF-8
Codec ID                                 : S_TEXT/UTF8
Codec ID/Info                            : UTF-8 Plain Text
Language                                 : Spanish
Default                                  : No
Forced                                   : No

Text #2
ID                                       : 5
Format                                   : UTF-8
Codec ID                                 : S_TEXT/UTF8
Codec ID/Info                            : UTF-8 Plain Text
Language                                 : English
Default                                  : No
Forced                                   : No

Menu
00:00:00.000                             : en:Chapter 1
00:05:51.809                             : en:Chapter 2
00:09:21.561                             : en:Chapter 3
00:14:39.587                             : en:Chapter 4
00:18:13.217                             : en:Chapter 5
00:21:39.464                             : en:Chapter 6
00:26:26.334                             : en:Chapter 7
00:30:02.801                             : en:Chapter 8
00:32:57.433                             : en:Chapter 9
00:43:43.454                             : en:Chapter 10
00:48:42.669                             : en:Chapter 11
00:50:25.147                             : en:Chapter 12
00:54:29.975                             : en:Chapter 13
00:57:36.911                             : en:Chapter 14
01:00:37.634                             : en:Chapter 15
01:06:40.746                             : en:Chapter 16
01:10:31.852                             : en:Chapter 17
01:14:48.942                             : en:Chapter 18
01:19:01.153                             : en:Chapter 19
01:23:37.595                             : en:Chapter 20




Descarga.png



MEGA-BANNER.png

Tenemos TODO el material de Club-HD disponible por Mega, enlaces 100% activos y online hasta la fecha

Llévate tus cuentas Mega PRO III gratis con tu membresía VIP!
Todos los posts vivos con links de Mega.
Todo el material de Club-HD desbloqueado y sin publicidad.

Obtén más información sobre nuestras Membresías VIP


NITROFLARE-BANNER.png

Para ver este contenido oculto, debes dar click en el botón"Like", o cualquiera de las otras reacciones:

Me Gusta Me Gusta, Me Encanta Me Encanta, Jaja Jaja, Wow Wow, Triste Triste, Molesto Molesto

UPLOADED.TO_BANNER.png

Para ver este contenido oculto, debes dar click en el botón"Like", o cualquiera de las otras reacciones:

Me Gusta Me Gusta, Me Encanta Me Encanta, Jaja Jaja, Wow Wow, Triste Triste, Molesto Molesto

google-drive.png

Para ver este contenido oculto, debes dar click en el botón"Like", o cualquiera de las otras reacciones:

Me Gusta Me Gusta, Me Encanta Me Encanta, Jaja Jaja, Wow Wow, Triste Triste, Molesto Molesto
 
Última edición por un moderador:
gracias lo mejor para navidad, ve si tienes popr ahi santa clausula 2
 
inkreible las 3 maestro eres lo maximo ...


Tb_up3
 
que genial eres revolver, exactamente acabo de bajar ya las primeras dos y ahora termino con esta, gracias por las pelis, seguramente las vere el dia de navidad todo el dia
 
Con esta se cierra el Ciclo, o la trilogia Excelente.:aplausos::aplausos:

Salve R21!:LXR: salve:LXR: salve:LXR:Salve R21!

GRACIAS R21!
 
sos grande revolver21 que gran tremendo trabajo en postear el trio de santa clause con esta veremos un poco del comienzo la parte que me justa en esta entrega ,,, a descargar ver ver ver hasta estar satisfecho , gracias saludos (esperando mas sorpresas)
 
Volver