The Sessions (2012) m-720p BDRip Dual Latino-Inglés [Subt. Esp-Ing] (Drama. Comedia. Romance)

Max

Admin
Miembro del Staff
Administrador
Registro
8 Ago 2012
Mensajes
5.587
Reacciones
23.752
Puntos
113
Ubicación
Disco C

Reputation:





TÍTULO ORIGINAL: The Sessions (The Surrogate)
AÑO: 2012
DURACIÓN: 98 min.
PAÍS: Estados Unidos
DIRECTOR: Ben Lewin
GUIÓN: Ben Lewin
MÚSICA: Marco Beltrami
FOTOGRAFÍA: Geoffrey Simpson
REPARTO: John Hawkes, Helen Hunt, William H. Macy, Moon Bloodgood, Annika Marks, W. Earl Brown, Blake Lindsley, Adam Arkin, Ming Lo, Jennifer Kumiyama, Robin Weigert, Jarrod Bailey, Rusty Schwimmer
PRODUCTORA: Fox Searchlight Pictures
PREMIOS:
2012: Oscars: Nominada a mejor actriz secundaria (Helen Hunt)
2012: Globos de Oro: 2 Nominaciones: mejor actor drama (Hawkes) y actriz sec. (Hunt)
2012: Premios BAFTA: Nominada a mejor actriz secundaria (Helen Hunt)
2012: Critics Choice Awards: 2 nominaciones
2012: Festival de Sundance: Premio del público (mejor película) y mejor reparto
2012: Festival de San Sebastián: Premio del Público
2012: Independent Spirit Awards: Nominada a Mejor actor (Hawkes) y actriz sec. (Hunt)
2012: Satellite Awards: 5 nominaciones, incluyendo Mejor película
GÉNERO: Drama. Comedia. Romance | Basado en hechos reales. Comedia dramática. Discapacidad. Cine independiente USA

http://www.imdb.com/title/tt1866249/?ref_=fn_al_tt_1






Mark O'Brien (John Hawkes), un poeta y periodista tetrapléjico y con un pulmón de acero que decide que, a sus 38 años, ya es hora de perder la virginidad. Con la ayuda de su terapeuta y la orientación de un sacerdote (William H. Macy), Mark se pone en contacto con Cheryl Cohen-Greene (Helen Hunt), una profesional del sexo.





























Código:
General
Complete name                            : The Sessions (2012) m-720p BDRip Dual Latino-Inglés [Subt. Esp-Ing].mkv
Format                                   : Matroska
Format version                           : Version 2
File size                                : 2.45 GiB
Duration                                 : 1h 35mn
Overall bit rate                         : 3 684 Kbps
Movie name                               : www.club-hd.com --> The Sessions (2012) m-720p BDRip Dual Latino-Inglés [Subt. Esp-Ing]
Encoded date                             : UTC 2013-02-06 22:42:30
Writing application                      : mkvmerge v5.8.0 ('No Sleep / Pillow') built on Sep  2 2012 15:37:04
Writing library                          : libebml v1.2.3 + libmatroska v1.3.0

Video
ID                                       : 1
Format                                   : AVC
Format/Info                              : Advanced Video Codec
Format profile                           : High@L4.1
Format settings, CABAC                   : Yes
Format settings, ReFrames                : 9 frames
Codec ID                                 : V_MPEG4/ISO/AVC
Duration                                 : 1h 35mn
Bit rate                                 : 2 793 Kbps
Width                                    : 1 280 pixels
Height                                   : 694 pixels
Display aspect ratio                     : 1.85:1
Frame rate mode                          : Constant
Frame rate                               : 23.976 fps
Color space                              : YUV
Chroma subsampling                       : 4:2:0
Bit depth                                : 8 bits
Scan type                                : Progressive
Bits/(Pixel*Frame)                       : 0.131
Stream size                              : 1.80 GiB (74%)
Title                                    : www.club-hd.com --> The Sessions (2012) m-720p BDRip Dual Latino-Inglés [Subt. Esp-Ing]
Writing library                          : x264 core 129 r2245 bc13772
Encoding settings                        : cabac=1 / ref=9 / deblock=1:-2:-2 / analyse=0x3:0x113 / me=umh / subme=10 / psy=1 / psy_rd=1.00:0.00 / mixed_ref=1 / me_range=16 / chroma_me=1 / trellis=2 / 8x8dct=1 / cqm=0 / deadzone=21,11 / fast_pskip=1 / chroma_qp_offset=-2 / threads=12 / lookahead_threads=2 / sliced_threads=0 / nr=0 / decimate=1 / interlaced=0 / bluray_compat=0 / constrained_intra=0 / bframes=3 / b_pyramid=2 / b_adapt=1 / b_bias=0 / direct=1 / weightb=1 / open_gop=0 / weightp=2 / keyint=250 / keyint_min=23 / scenecut=40 / intra_refresh=0 / rc=2pass / mbtree=0 / bitrate=2793 / ratetol=1.0 / qcomp=0.60 / qpmin=0 / qpmax=69 / qpstep=4 / cplxblur=20.0 / qblur=0.5 / ip_ratio=1.40 / pb_ratio=1.30 / aq=1:0.80
Language                                 : English
Default                                  : Yes
Forced                                   : No

Audio #1
ID                                       : 2
Format                                   : AC-3
Format/Info                              : Audio Coding 3
Mode extension                           : CM (complete main)
Format settings, Endianness              : Big
Codec ID                                 : A_AC3
Duration                                 : 1h 35mn
Bit rate mode                            : Constant
Bit rate                                 : 448 Kbps
Channel(s)                               : 6 channels
Channel positions                        : Front: L C R, Side: L R, LFE
Sampling rate                            : 48.0 KHz
Bit depth                                : 16 bits
Compression mode                         : Lossy
Stream size                              : 305 MiB (12%)
Title                                    : The Sessions (2012) - Español Latino AC3 5.1
Language                                 : Spanish
Default                                  : Yes
Forced                                   : No

Audio #2
ID                                       : 3
Format                                   : AC-3
Format/Info                              : Audio Coding 3
Mode extension                           : CM (complete main)
Format settings, Endianness              : Big
Codec ID                                 : A_AC3
Duration                                 : 1h 35mn
Bit rate mode                            : Constant
Bit rate                                 : 448 Kbps
Channel(s)                               : 6 channels
Channel positions                        : Front: L C R, Side: L R, LFE
Sampling rate                            : 48.0 KHz
Bit depth                                : 16 bits
Compression mode                         : Lossy
Stream size                              : 305 MiB (12%)
Title                                    : The Sessions (2012) - Inglés AC3 5.1
Language                                 : English
Default                                  : No
Forced                                   : No

Text #1
ID                                       : 4
Format                                   : UTF-8
Codec ID                                 : S_TEXT/UTF8
Codec ID/Info                            : UTF-8 Plain Text
Title                                    : Subtítulos Español
Language                                 : Spanish
Default                                  : No
Forced                                   : No

Text #2
ID                                       : 5
Format                                   : UTF-8
Codec ID                                 : S_TEXT/UTF8
Codec ID/Info                            : UTF-8 Plain Text
Title                                    : Subtítulos Inglés
Language                                 : English
Default                                  : No
Forced                                   : No

Menu
00:00:00.000                             : en:Chapter 1
00:03:45.225                             : en:Chapter 2
00:08:18.373                             : en:Chapter 3
00:13:29.017                             : en:Chapter 4
00:17:04.982                             : en:Chapter 5
00:19:21.243                             : en:Chapter 6
00:23:21.233                             : en:Chapter 7
00:27:56.508                             : en:Chapter 8
00:33:08.486                             : en:Chapter 9
00:37:57.400                             : en:Chapter 10
00:41:44.210                             : en:Chapter 11
00:45:08.748                             : en:Chapter 12
00:50:01.165                             : en:Chapter 13
00:53:56.859                             : en:Chapter 14
00:55:28.617                             : en:Chapter 15
01:00:20.909                             : en:Chapter 16
01:03:12.580                             : en:Chapter 17
01:06:56.471                             : en:Chapter 18
01:09:34.754                             : en:Chapter 19
01:10:26.597                             : en:Chapter 20
01:13:15.975                             : en:Chapter 21
01:21:01.273                             : en:Chapter 22
01:27:06.304                             : en:Chapter 23
01:30:39.643                             : en:Chapter 24






Enlaces de Mega y Fireload solo disponibles para Miembros VIP

Compra tu Membresía VIP y apoya a Club-HD!

ATENCIÓN! Tenemos TODO el material de Club-HD disponible por Mega y Fireload, enlaces 100% activos y online hasta la fecha

Llévate tus cuentas Mega PRO II gratis con tu membresía VIP!
Todos los posts vivos con links de Mega y Fireload.
Todo el material de Club-HD desbloqueado y sin publicidad.

Click Aquí para más información.

Enlaces de Mega y Fireload solo disponibles para Miembros VIP

Compra tu Membresía VIP y apoya a Club-HD!

ATENCIÓN! Tenemos TODO el material de Club-HD disponible por Mega y Fireload, enlaces 100% activos y online hasta la fecha

Llévate tus cuentas Mega PRO II gratis con tu membresía VIP!
Todos los posts vivos con links de Mega y Fireload.
Todo el material de Club-HD desbloqueado y sin publicidad.

Click Aquí para más información.


Para ver este contenido oculto, debes dar click en una de las siguientes reacciones : Like Like, Love Love, Haha Haha, Wow Wow, Sad Sad, Angry Angry


Para ver este contenido oculto, debes dar click en una de las siguientes reacciones : Like Like, Love Love, Haha Haha, Wow Wow, Sad Sad, Angry Angry
 
Última edición por un moderador:

Lug

Well-known member
Registro
24 Oct 2012
Mensajes
1.691
Reacciones
37
Puntos
48
Edad
62

Reputation:

No lo puedo creer..... el primero............ :)plmfc::plmfc::plmfc::plmfc: me ganaron por segundos)
Muchas gracias.....
 

Nosferatu

Well-known member
Súper Moderador
Registro
31 Ago 2012
Mensajes
2.275
Reacciones
1.362
Puntos
113
Edad
44
Ubicación
Welcome to Hell!!

Reputation:

Muy bien otro estreno Master MAX!, Excelente a ver que tal. :aplausos::aplausos::aplausos:

Estos últimos días has estado muy activos con los Súbidas, Pichón.(Perdon el Pichon es Yona):aplausos::aplausos::aplausos:l0l:D

Gracias Master MAX! :LXR::LXR::pgarb:
 
Última edición por un moderador:

zacygal

Well-known member
Registro
3 Sep 2012
Mensajes
1.515
Reacciones
1.536
Puntos
113
Edad
49

Reputation:

que buena película gracias ...
 

yorsh73

New member
Registro
27 Ago 2012
Mensajes
33
Reacciones
1
Puntos
0
Ubicación
México

Reputation:

Excelente aporte amigos Revolver y Max, esta pelicula es muy muy buena, se las recomiendo ampliamente!! ;)
 

DoomsDay Elite

Well-known member
Registro
5 Sep 2012
Mensajes
1.225
Reacciones
1.101
Puntos
113

Reputation:

voy sacando provecho al nuevo disco duro con tanto aporte nuevo :dplgar:
 

Dany

New member
Registro
28 Ago 2012
Mensajes
395
Reacciones
10
Puntos
0
Edad
43

Reputation:

Muchas gracias por el aporte.
 

Usuarios Que Están Viendo Este Tema (Total: 1, Miembros: 0, Invitados: 1)

Arriba