The Shining (1980) m-720p Dual Latino-Inglés [Subt. Esp-Ing] (Terror)

Maestro Revolver

Well-known member
Miembro del Staff
Administrador
Registro
9 Ago 2012
Mensajes
3.569
Reacciones
59.471
Puntos
113

Reputation:









TÍTULO ORIGINAL: The Shining
AÑO: 1980
DURACIÓN: 146 min.
PAÍS: USA
DIRECTOR: Stanley Kubrick
GUIÓN: Stanley Kubrick & Diane Johnson (Novela: Stephen King)
REPARTO: Jack Nicholson, Shelley Duvall, Danny Lloyd, Scatman Crothers, Barry Nelson, Philip Stone, Joe Turkel, Lia Beldam, Billie Gibson, Barry Dennen, David Baxt, Manning Redwood, Lisa Burns, Louise Burns, Alison Coleridge, Norman Gay
PRODUCTORA: Warner Bros. Pictures / Hawk Films / Peregrine
GÉNERO: Terror | Sobrenatural. Casas encantadas. Fantasmas. Drama psicológico. Película de culto
: http://www.imdb.es/title/tt0081505/






Jack Torrance se traslada con su mujer y su hijo de siete años al impresionante hotel Overlook, en Colorado, para encargarse del mantenimiento de las instalaciones durante la temporada invernal, época en la que permanece cerrado y aislado por la nieve. Su objetivo es encontrar paz y sosiego para escribir una novela. Sin embargo, poco después de su llegada al hotel, al mismo tiempo que Jack empieza a padecer inquietantes trastornos de personalidad, se suceden extraños y espeluznantes fenómenos paranormales.
























La pelicula NO tiene ninguna marca... solo colocamos el nombre de esta web en las capturas






Código:
General
Format                                   : Matroska
Format version                           : Version 2
File size                                : 4.17 GiB
Duration                                 : 2h 23mn
Overall bit rate                         : 4 154 Kbps
Movie name                               : www.club-hd.com
Encoded date                             : UTC 2013-02-12 02:48:38
Writing application                      : mkvmerge v5.7.0 ('The Whirlwind') built on Jul  8 2012 20:08:51
Writing library                          : libebml v1.2.3 + libmatroska v1.3.0

Video
ID                                       : 1
Format                                   : AVC
Format/Info                              : Advanced Video Codec
Format profile                           : High@L4.1
Format settings, CABAC                   : Yes
Format settings, ReFrames                : 5 frames
Codec ID                                 : V_MPEG4/ISO/AVC
Duration                                 : 2h 23mn
Bit rate                                 : 3 000 Kbps
Width                                    : 1 280 pixels
Height                                   : 720 pixels
Display aspect ratio                     : 16:9
Frame rate mode                          : Constant
Frame rate                               : 23.976 fps
Color space                              : YUV
Chroma subsampling                       : 4:2:0
Bit depth                                : 8 bits
Scan type                                : Progressive
Bits/(Pixel*Frame)                       : 0.136
Stream size                              : 2.93 GiB (70%)
Title                                    : www.club-hd.com
Writing library                          : x264 core 120 r2164 da19765
Language                                 : English
Default                                  : Yes
Forced                                   : No

Audio #1
ID                                       : 2
Format                                   : AC-3
Format/Info                              : Audio Coding 3
Mode extension                           : CM (complete main)
Format settings, Endianness              : Big
Codec ID                                 : A_AC3
Duration                                 : 2h 23mn
Bit rate mode                            : Constant
Bit rate                                 : 640 Kbps
Channel(s)                               : 6 channels
Channel positions                        : Front: L C R, Side: L R, LFE
Sampling rate                            : 48.0 KHz
Bit depth                                : 16 bits
Compression mode                         : Lossy
Stream size                              : 658 MiB (15%)
Title                                    : www.club-hd.com  >>  Latino
Language                                 : Spanish
Default                                  : Yes
Forced                                   : No

Audio #2
ID                                       : 3
Format                                   : AC-3
Format/Info                              : Audio Coding 3
Mode extension                           : CM (complete main)
Format settings, Endianness              : Big
Codec ID                                 : A_AC3
Duration                                 : 2h 23mn
Bit rate mode                            : Constant
Bit rate                                 : 512 Kbps
Channel(s)                               : 6 channels
Channel positions                        : Front: L C R, Side: L R, LFE
Sampling rate                            : 48.0 KHz
Bit depth                                : 16 bits
Compression mode                         : Lossy
Stream size                              : 526 MiB (12%)
Title                                    : www.club-hd.com  >>  Inglés
Language                                 : English
Default                                  : No
Forced                                   : No

Text #1
ID                                       : 4
Format                                   : UTF-8
Codec ID                                 : S_TEXT/UTF8
Codec ID/Info                            : UTF-8 Plain Text
Language                                 : Spanish
Default                                  : No
Forced                                   : No

Text #2
ID                                       : 5
Format                                   : UTF-8
Codec ID                                 : S_TEXT/UTF8
Codec ID/Info                            : UTF-8 Plain Text
Language                                 : English
Default                                  : No
Forced                                   : No










Enlaces de Mega y Fireload solo disponibles para Miembros VIP

Compra tu Membresía VIP y apoya a Club-HD!

ATENCIÓN! Tenemos TODO el material de Club-HD disponible por Mega y Fireload, enlaces 100% activos y online hasta la fecha

Llévate tus cuentas Mega PRO II gratis con tu membresía VIP!
Todos los posts vivos con links de Mega y Fireload.
Todo el material de Club-HD desbloqueado y sin publicidad.

Click Aquí para más información.


Enlaces de Mega y Fireload solo disponibles para Miembros VIP

Compra tu Membresía VIP y apoya a Club-HD!

ATENCIÓN! Tenemos TODO el material de Club-HD disponible por Mega y Fireload, enlaces 100% activos y online hasta la fecha

Llévate tus cuentas Mega PRO II gratis con tu membresía VIP!
Todos los posts vivos con links de Mega y Fireload.
Todo el material de Club-HD desbloqueado y sin publicidad.

Click Aquí para más información.



Para ver este contenido oculto, debes dar click en una de las siguientes reacciones : Like Like, Love Love, Haha Haha, Wow Wow, Sad Sad, Angry Angry


Para ver este contenido oculto, debes dar click en una de las siguientes reacciones : Like Like, Love Love, Haha Haha, Wow Wow, Sad Sad, Angry Angry
 
Última edición por un moderador:

CompuMax

New member
Registro
28 Ago 2012
Mensajes
326
Reacciones
9
Puntos
0
Ubicación
Caracas, Venezuela
Sitio web
hd-latino.co.nf

Reputation:

Desc_g_
Una de mis peliculas de terror favoritas
La tengo en 720p con audio 2.0 sincronizado por mi. Así que me bajo esta que tiene audio 5.1.
Gracias de nuevo por seguir sorprendiéndonos R21.
 

virus619

Well-known member
Registro
28 Ago 2012
Mensajes
4.206
Reacciones
217
Puntos
63
Edad
33

Reputation:

revolver esta pelicula tiene los mismos enlases de descarga que Sinister ?
 

bdom

New member
Registro
28 Ago 2012
Mensajes
18
Reacciones
0
Puntos
0

Reputation:

que buen aporte ........gracias revolver
 

Ezze

Well-known member
Miembro del Staff
Súper Moderador
Registro
28 Ago 2012
Mensajes
1.664
Reacciones
1.795
Puntos
113
Ubicación
En la Torre de Observación

Reputation:

bye Una de las mejores películas de terror, y eso que es un poco vieja. Magnífica!! Gracias R21!!! :D:D:D
 

Lug

Well-known member
Registro
24 Oct 2012
Mensajes
1.691
Reacciones
37
Puntos
48
Edad
62

Reputation:

Retiro lo de Desc_g_
Mismos enlaces de Sinister.
En espera.....
 

Usuarios Que Están Viendo Este Tema (Total: 1, Miembros: 0, Invitados: 1)

Arriba