The Smurfs 2 (2013) 3D H-SBS 1080p BDRip Dual Latino-Inglés [Subt. Esp] (Animación. Comedia)

Maestro Revolver

Well-known member
Miembro del Staff
Administrador
Registro
9 Ago 2012
Mensajes
3.567








TÍTULO ORIGINAL: The Smurfs 2
AÑO: 2013
DURACIÓN: 105 min.
PAÍS: USA
DIRECTOR: Raja Gosnell
GUIÓN: Karey Kirkpatrick, David Ronn, Jay Scherick, J. David Stem, David N. Weiss
REPARTO: Animation, Neil Patrick Harris, Jayma Mays, Hank Azaria, Brendan Gleeson
PRODUCTORA: Kerner Entertainment Company / Columbia Pictures / Sony Pictures Animation
GÉNERO: Animación. Comedia. Infantil | Cómic. Cine familiar. 3-D. Secuela
: http://www.imdb.com/title/tt2017020/






El malvado brujo Gargamel crea una pareja de criaturas revoltosas, una copia de los pitufos, llamados los Malotes, y que espera le permitan aprovecharse de su poderosa y mágica esencia. Pero cuando descubre que solo un autentico Pitufo le puede dar lo que quiere –y que solamente un secreto que conoce Pitufina puede transformar a los Malotes en verdaderos pitufos- Gargamel secuestra a Pitufina y la lleva a París. Por lo que está en manos de Papá Pitufo, Torpe, Gruñón y Vanidoso regresar a nuestro mundo, y reunirse con sus amigos humanos Patrick y Grace Winslow, ¡y rescatarla!






















La pelicula NO tiene ninguna marca... solo colocamos el nombre de esta web en las capturas






Código:
General
Format                                   : Matroska
Format version                           : Version 2
File size                                : 10.3 GiB
Duration                                 : 1h 44mn
Overall bit rate                         : 14.1 Mbps
Movie name                               : www.club-hd.com
Encoded date                             : UTC 2013-11-16 21:54:15
Writing application                      : mkvmerge v5.7.0 ('The Whirlwind') built on Jul  8 2012 20:08:51
Writing library                          : libebml v1.2.3 + libmatroska v1.3.0

Video
ID                                       : 1
Format                                   : AVC
Format/Info                              : Advanced Video Codec
Format profile                           : High@L4.1
Format settings, CABAC                   : Yes
Format settings, ReFrames                : 2 frames
Codec ID                                 : V_MPEG4/ISO/AVC
Duration                                 : 1h 44mn
Bit rate                                 : 11.2 Mbps
Width                                    : 1 920 pixels
Height                                   : 1 080 pixels
Display aspect ratio                     : 16:9
Frame rate mode                          : Constant
Frame rate                               : 23.976 fps
Color space                              : YUV
Chroma subsampling                       : 4:2:0
Bit depth                                : 8 bits
Scan type                                : Progressive
Bits/(Pixel*Frame)                       : 0.225
Stream size                              : 8.21 GiB (80%)
Title                                    : www.club-hd.com
Writing library                          : x264 core
Language                                 : English
Default                                  : Yes
Forced                                   : No
Color primaries                          : BT.709
Transfer characteristics                 : BT.709
Matrix coefficients                      : BT.709

Audio #1
ID                                       : 2
Format                                   : AC-3
Format/Info                              : Audio Coding 3
Mode extension                           : CM (complete main)
Format settings, Endianness              : Big
Codec ID                                 : A_AC3
Duration                                 : 1h 44mn
Bit rate mode                            : Constant
Bit rate                                 : 448 Kbps
Channel(s)                               : 6 channels
Channel positions                        : Front: L C R, Side: L R, LFE
Sampling rate                            : 48.0 KHz
Bit depth                                : 16 bits
Compression mode                         : Lossy
Stream size                              : 336 MiB (3%)
Title                                    : AC3
Language                                 : Spanish
Default                                  : Yes
Forced                                   : No

Audio #2
ID                                       : 3
Format                                   : AC-3
Format/Info                              : Audio Coding 3
Mode extension                           : CM (complete main)
Format settings, Endianness              : Big
Codec ID                                 : A_AC3
Duration                                 : 1h 44mn
Bit rate mode                            : Constant
Bit rate                                 : 640 Kbps
Channel(s)                               : 6 channels
Channel positions                        : Front: L C R, Side: L R, LFE
Sampling rate                            : 48.0 KHz
Bit depth                                : 16 bits
Compression mode                         : Lossy
Stream size                              : 480 MiB (5%)
Title                                    : AC3
Language                                 : English
Default                                  : No
Forced                                   : No

Audio #3
ID                                       : 4
Format                                   : DTS
Format/Info                              : Digital Theater Systems
Mode                                     : 16
Format settings, Endianness              : Big
Codec ID                                 : A_DTS
Duration                                 : 1h 44mn
Bit rate mode                            : Constant
Bit rate                                 : 1 509 Kbps
Channel(s)                               : 6 channels
Channel positions                        : Front: L C R, Side: L R, LFE
Sampling rate                            : 48.0 KHz
Bit depth                                : 24 bits
Compression mode                         : Lossy
Stream size                              : 1.11 GiB (11%)
Title                                    : DTS
Language                                 : English
Default                                  : No
Forced                                   : No

Text
ID                                       : 5
Format                                   : VobSub
Muxing mode                              : zlib
Codec ID                                 : S_VOBSUB
Codec ID/Info                            : The same subtitle format used on DVDs
Title                                    : 3D
Language                                 : Spanish
Default                                  : No
Forced                                   : No

Menu
00:00:00.000                             : en:00:00:00.000
00:05:00.133                             : en:00:05:00.133
00:11:12.755                             : en:00:11:12.755
00:18:14.093                             : en:00:18:14.093
00:23:18.522                             : en:00:23:18.522
00:27:54.590                             : en:00:27:54.590
00:34:25.480                             : en:00:34:25.480
00:41:09.342                             : en:00:41:09.342
00:46:10.434                             : en:00:46:10.434
00:50:59.098                             : en:00:50:59.098
00:56:47.863                             : en:00:56:47.863
01:02:33.875                             : en:01:02:33.875
01:07:06.773                             : en:01:07:06.773
01:14:10.196                             : en:01:14:10.196
01:21:05.819                             : en:01:21:05.819
01:28:24.591                             : en:01:28:24.591








Enlaces de Mega y Google Drive solo disponibles para Miembros VIP

Compra tu Membresía VIP y apoya a Club-HD!

ATENCIÓN! Tenemos TODO el material de Club-HD disponible por Mega y Google Drive, enlaces 100% activos y online hasta la fecha

Llévate tus cuentas Mega PRO III gratis con tu membresía VIP!
Todos los posts vivos con links de Mega y Google Drive.
Todo el material de Club-HD desbloqueado y sin publicidad.

Click Aquí para más información.



Para ver este contenido oculto, debes dar click en una de las siguientes reacciones : Like Like, Love Love, Haha Haha, Wow Wow, Sad Sad, Angry Angry

 
Última edición por un moderador:

Radge

Member
Registro
28 Ago 2012
Mensajes
353
Desc_g_ muchas gracias, Agradeceria de ser posible saber si la van a subir en 3D despues porque ya la tenia en 720p y la prefiero en 3D lo digo para esperar y descargar mejor en 3D de antemano muchas gracias
 

Usuarios Que Están Viendo Este Tema (Total: 1, Miembros: 0, Invitados: 1)

Quién Leyó Este Tema (Total Miembros: 3)

Arriba