The Spectacular Now (2013) 720p BDRip Audio Inglés [Subt. Esp] (Drama. Comedia)

Maestro Revolver

Administrador
Registro
9 Ago 2012
Mensajes
3.157
Reacciones (ptje)
54.925


The-Spectacular-Now.jpg




FichaTecnica.jpg


TÍTULO ORIGINAL: The Spectacular Now
AÑO: 2013
DURACIÓN: 95 min.
PAÍS: USA
DIRECTOR: James Ponsoldt
GUIÓN: Scott Neustadter, Michael H. Weber (Novela: Tim Tharp)
REPARTO: Miles Teller, Shailene Woodley, Brie Larson, Jennifer Jason Leigh, Mary Elizabeth Winstead, Kyle Chandler, Masam Holden, Dayo Okeniyi, Nicci Faires
PRODUCTORA: 21 Laps Entertainment / Andrew Lauren Productions (ALP) / Global Produce
GÉNERO: Drama. Comedia | Cine independiente USA. Adolescencia
imdb-logo.png
: http://www.imdb.com/title/tt1714206/

Premios: 2013: Festival de Sundance: Premio del Jurado al mejor reparto
2013: National Board of Review (NBR): Top 10 películas independientes
2013: Premios Gotham: Nominada a Mejor actriz (Shailene Woodley)
2013: Independent Spirit Awards: Nominada a mejor actriz y guión





Sinopsis.jpg


Basada en una novela de Tim Tharp, cuenta la historia de Sutter Keely (Teller), un estudiante juerguista que un día conoce a Aimee Finicky (Woodley), una tímida e inadaptada adolescente. Sutter se propone entonces realizar un experimento social con el fin de comprobar si es capaz de influir en la vida de las personas, y la cobaya será Aimee.




Trailer.jpg






Capturas.jpg


1.jpg


2.jpg


3.jpg


4.jpg


5.jpg


6.jpg


La pelicula NO tiene ninguna marca... solo colocamos el nombre de esta web en las capturas




MediaInfo.jpg


Código:
General
Format                                   : Matroska
Format version                           : Version 2
File size                                : 3.66 GiB
Duration                                 : 1h 35mn
Overall bit rate                         : 5 518 Kbps
Movie name                               : www.club-hd.com
Encoded date                             : UTC 2014-01-07 23:54:45
Writing application                      : mkvmerge v5.7.0 ('The Whirlwind') built on Jul  8 2012 20:08:51
Writing library                          : libebml v1.2.3 + libmatroska v1.3.0

Video
ID                                       : 1
Format                                   : AVC
Format/Info                              : Advanced Video Codec
Format profile                           : [email protected]
Format settings, CABAC                   : Yes
Format settings, ReFrames                : 5 frames
Muxing mode                              : Header stripping
Codec ID                                 : V_MPEG4/ISO/AVC
Duration                                 : 1h 35mn
Bit rate                                 : 5 069 Kbps
Width                                    : 1 280 pixels
Height                                   : 536 pixels
Display aspect ratio                     : 2.40:1
Frame rate mode                          : Constant
Frame rate                               : 23.976 fps
Color space                              : YUV
Chroma subsampling                       : 4:2:0
Bit depth                                : 8 bits
Scan type                                : Progressive
Bits/(Pixel*Frame)                       : 0.308
Stream size                              : 3.29 GiB (90%)
Title                                    : www.club-hd.com
Writing library                          : x264 core 140 r2377 1ca7bb9
Language                                 : English
Default                                  : Yes
Forced                                   : No

Audio
ID                                       : 2
Format                                   : AC-3
Format/Info                              : Audio Coding 3
Mode extension                           : CM (complete main)
Format settings, Endianness              : Big
Muxing mode                              : Header stripping
Codec ID                                 : A_AC3
Duration                                 : 1h 35mn
Bit rate mode                            : Constant
Bit rate                                 : 448 Kbps
Channel(s)                               : 6 channels
Channel positions                        : Front: L C R, Side: L R, LFE
Sampling rate                            : 48.0 KHz
Bit depth                                : 16 bits
Compression mode                         : Lossy
Stream size                              : 305 MiB (8%)
Title                                    : www.club-hd.com
Language                                 : English
Default                                  : Yes
Forced                                   : No

Text
ID                                       : 3
Format                                   : UTF-8
Codec ID                                 : S_TEXT/UTF8
Codec ID/Info                            : UTF-8 Plain Text
Title                                    : www.club-hd.com
Language                                 : Spanish
Default                                  : Yes
Forced                                   : No

Menu
00:00:00.000                             : en:00:00:00.000
00:06:19.296                             : en:00:06:19.296
00:13:07.161                             : en:00:13:07.161
00:20:16.799                             : en:00:20:16.799
00:28:03.473                             : en:00:28:03.473
00:34:48.837                             : en:00:34:48.837
00:40:39.187                             : en:00:40:39.187
00:46:48.055                             : en:00:46:48.055
00:54:09.955                             : en:00:54:09.955
01:00:50.814                             : en:01:00:50.814
01:09:21.282                             : en:01:09:21.282
01:12:14.330                             : en:01:12:14.330
01:15:49.628                             : en:01:15:49.628
01:19:33.769                             : en:01:19:33.769
01:24:04.248                             : en:01:24:04.248
01:27:09.015                             : en:01:27:09.015




Descarga.jpg



MEGA.jpg

Tenemos TODO el material de Club-HD disponible por Mega, enlaces 100% activos y online hasta la fecha

Llévate tus cuentas Mega PRO III gratis con tu membresía VIP!
Todos los posts vivos con links de Mega.
Todo el material de Club-HD desbloqueado y sin publicidad.

Obtén más información sobre nuestras Membresías VIP



UPLOADED_BANNER.png

Para ver este contenido oculto, debes dar click en el botón"Like", o cualquiera de las otras reacciones:

Me Gusta Me Gusta, Me Encanta Me Encanta, Jaja Jaja, Wow Wow, Triste Triste, Molesto Molesto
 
Última edición por un moderador:
Se ve interesante, vamos a ver que tal esta, gracias por compartir :dplgar:
 
Muchas gracias por esta película se ve interesante
 
:dplgar:Cine Independiente, un estreno veremos que tal, gracias My Boss!!!!!!!!!!!Pl4yb0y
 
gracias por esta pelicula revolver!! :aplausos::aplausos::aplausos: aunque voy a esperar a que este en dual para descargarla.
ademas, no se a uds, pero esa actriz me parece muy guapa jajaj :slbd::D
 
Volver