The Tournament (2009) 720p BDRip Audio Inglés [Subt. Esp] (Acción)

Maestro Revolver

Administrador
Registro
9 Ago 2012
Mensajes
3.157
Reacciones (ptje)
55.208


The-Tournamen.jpg




FichaTecnica.jpg


TÍTULO ORIGINAL: The Tournament
AÑO: 2009
DURACIÓN: 95 min.
PAÍS: Reino Unido
DIRECTOR: Scott Mann
GUIÓN: Gary Young, Jonathan Frank, Nick Rowntree
REPARTO: Kelly Hu, Robert Carlyle, Ving Rhames, Ian Somerhalder, Liam Cunningham, Sebastien Foucan, Andy Nyman, Scott Adkins, Craig Conway, John Lynch, Nick Rowntree, Rachel Grant
PRODUCTORA: Buzzfilms / Mann Made Films / Sherazade Film Development / Storitel
GÉNERO: Acción
imdb-logo.png
: http://www.imdb.com/title/tt0471041/




Sinopsis.jpg


Cada siete años se lleva a cabo “El Torneo”: una batalla entre los treinta asesinos más peligrosos del mundo. El vencedor recibirá un premio de de 10.000.000 de dólares y el título de número 1 del mundo.




Trailer.jpg






Capturas.jpg


1.jpg


2.jpg


3.jpg


4.jpg


La pelicula NO tiene ninguna marca... solo colocamos el nombre de esta web en las capturas




MediaInfo.jpg


Código:
General
Format                                   : Matroska
Format version                           : Version 2
File size                                : 3.81 GiB
Duration                                 : 1h 32mn
Overall bit rate                         : 5 916 Kbps
Movie name                               : www.club-hd.com
Encoded date                             : UTC 2013-11-29 01:04:28
Writing application                      : mkvmerge v5.7.0 ('The Whirlwind') built on Jul  8 2012 20:08:51
Writing library                          : libebml v1.2.3 + libmatroska v1.3.0

Video
ID                                       : 1
Format                                   : AVC
Format/Info                              : Advanced Video Codec
Format profile                           : [email protected]
Format settings, CABAC                   : Yes
Format settings, ReFrames                : 5 frames
Codec ID                                 : V_MPEG4/ISO/AVC
Duration                                 : 1h 32mn
Bit rate                                 : 5 275 Kbps
Width                                    : 1 280 pixels
Height                                   : 720 pixels
Display aspect ratio                     : 16:9
Frame rate mode                          : Constant
Frame rate                               : 23.976 fps
Color space                              : YUV
Chroma subsampling                       : 4:2:0
Bit depth                                : 8 bits
Scan type                                : Progressive
Bits/(Pixel*Frame)                       : 0.239
Stream size                              : 3.32 GiB (87%)
Title                                    : www.club-hd.com
Writing library                          : x264 core 79 r1354 636f98f
Language                                 : English
Default                                  : Yes
Forced                                   : No

Audio
ID                                       : 2
Format                                   : AC-3
Format/Info                              : Audio Coding 3
Mode extension                           : CM (complete main)
Format settings, Endianness              : Big
Codec ID                                 : A_AC3
Duration                                 : 1h 32mn
Bit rate mode                            : Constant
Bit rate                                 : 640 Kbps
Channel(s)                               : 6 channels
Channel positions                        : Front: L C R, Side: L R, LFE
Sampling rate                            : 48.0 KHz
Bit depth                                : 16 bits
Compression mode                         : Lossy
Stream size                              : 422 MiB (11%)
Title                                    : www.club-hd.com
Language                                 : English
Default                                  : Yes
Forced                                   : No

Text
ID                                       : 3
Format                                   : UTF-8
Codec ID                                 : S_TEXT/UTF8
Codec ID/Info                            : UTF-8 Plain Text
Language                                 : Spanish
Default                                  : Yes
Forced                                   : No

Menu
00:00:00.000                             : en:00:00:00.000
00:04:55.045                             : en:00:04:55.045
00:13:22.802                             : en:00:13:22.802
00:19:29.794                             : en:00:19:29.794
00:29:38.819                             : en:00:29:38.819
00:36:34.150                             : en:00:36:34.150
00:43:20.807                             : en:00:43:20.807
00:55:07.137                             : en:00:55:07.137
01:01:24.681                             : en:01:01:24.681
01:08:15.883                             : en:01:08:15.883
01:15:16.804                             : en:01:15:16.804
01:27:27.909                             : en:01:27:27.909




Descarga.jpg



MEGA.jpg

Tenemos TODO el material de Club-HD disponible por Mega, enlaces 100% activos y online hasta la fecha

Llévate tus cuentas Mega PRO III gratis con tu membresía VIP!
Todos los posts vivos con links de Mega.
Todo el material de Club-HD desbloqueado y sin publicidad.

Obtén más información sobre nuestras Membresías VIP



1FICHIER-VIP.png

Tenemos TODO el material de Club-HD disponible por Mega, enlaces 100% activos y online hasta la fecha

Llévate tus cuentas Mega PRO III gratis con tu membresía VIP!
Todos los posts vivos con links de Mega.
Todo el material de Club-HD desbloqueado y sin publicidad.

Obtén más información sobre nuestras Membresías VIP



UPLOADED_BANNER.png

Para ver este contenido oculto, debes dar click en el botón"Like", o cualquiera de las otras reacciones:

Me Gusta Me Gusta, Me Encanta Me Encanta, Jaja Jaja, Wow Wow, Triste Triste, Molesto Molesto


OPENLOAD.png

Para ver este contenido oculto, debes dar click en el botón"Like", o cualquiera de las otras reacciones:

Me Gusta Me Gusta, Me Encanta Me Encanta, Jaja Jaja, Wow Wow, Triste Triste, Molesto Molesto
 
Última edición:
Excelente!!!

Este pedido lo estaba esperando, nos pasaron el trailer por rl chat del CLUB y se ve que eta buena

A ver que tal, espero el trailer no me haya engañado :D

Gracias!!!

Saludo :D
 
GRACIAS REVOLVER, la vi hace bastante esta peli en LATINO y esta MUY BUENA :dplgar:
Voy a esperar un poco para descargarla, a ver si llega en DUAL LXR_2LXR_2LXR_2LXR_2LXR_2
 
Pnsand0Desconozco aun asi me la llevo es uno de mis generos preferidos ...My Boss hay para todos los gustos mil gracias, alto finde tenemos por delantePl4yb0y
 
Volver