The Twilight Saga: Breaking Dawn - Part 1 (2011) 1080p BDRip Dual Latino-Inglés [Subt. Esp] (Fantástico. Romance)

Maestro Revolver

Administrador
Registro
9 Ago 2012
Mensajes
3.157
Reacciones (ptje)
55.034


The-Twilight-4-1-1080p.jpg




FichaTecnica.jpg


TÍTULO ORIGINAL: The Twilight Saga: Breaking Dawn - Part 1
AÑO: 2011
DURACIÓN: 117 min.
PAÍS: USA
DIRECTOR: Bill Condon
GUIÓN: Melissa Rosenberg (Novela: Stephenie Meyer)
REPARTO: Kristen Stewart, Robert Pattinson, Taylor Lautner, Anna Kendrick, Peter Facinelli, Ashley Greene, Jackson Rathbone, Nikki Reed, Kellan Lutz, Elizabeth Reaser, Christian Serratos, Billy Burke, Booboo Stewart, Sarah Clarke, Michael Welch, Julia Jones, Kiowa Gordon, Alex Meraz, Gil Birmingham, Jamie Campbell Bower
PRODUCTORA: Summit Entertainment / Temple Hill / Sunswept Entertainment
GÉNERO: Fantástico. Romance. Thriller | Vampiros. Hombres lobo. Secuela
imdb-logo.png
: http://www.imdb.es/title/tt1324999/




Sinopsis.jpg


El amor que Edward y Bella sienten el uno por el otro se sella con la celebración de una gran ceremonia organizada por Alice. Durante la luna de miel, los recién casados tienen relaciones sexuales y Bella queda embarazada. El rápido crecimiento del feto, mitad humano mitad vampiro, afecta gravemente a su salud, llevándola al borde de la muerte... Primera parte de la adaptación de "Amanecer" que supone la cuarta entrega de la saga cinematográfica Crepúsculo, basada en las novelas de Stephenie Meyer.




Trailer.jpg






Capturas.jpg


1.jpg


2.jpg


3.jpg


4.jpg


5.jpg


6.jpg


La pelicula NO tiene ninguna marca... solo colocamos el nombre de esta web en las capturas




MediaInfo.jpg


Código:
General
Format                                   : Matroska
Format version                           : Version 2
File size                                : 9.63 GiB
Duration                                 : 1h 57mn
Overall bit rate                         : 11.8 Mbps
Movie name                               : www.club-hd.com
Encoded date                             : UTC 2013-02-15 01:58:21
Writing application                      : mkvmerge v5.7.0 ('The Whirlwind') built on Jul  8 2012 20:08:51
Writing library                          : libebml v1.2.3 + libmatroska v1.3.0

Video
ID                                       : 1
Format                                   : AVC
Format/Info                              : Advanced Video Codec
Format profile                           : [email protected]
Format settings, CABAC                   : Yes
Format settings, ReFrames                : 5 frames
Codec ID                                 : V_MPEG4/ISO/AVC
Duration                                 : 1h 57mn
Bit rate                                 : 9 175 Kbps
Width                                    : 1 920 pixels
Height                                   : 800 pixels
Display aspect ratio                     : 2.40:1
Frame rate mode                          : Constant
Frame rate                               : 23.976 fps
Color space                              : YUV
Chroma subsampling                       : 4:2:0
Bit depth                                : 8 bits
Scan type                                : Progressive
Bits/(Pixel*Frame)                       : 0.249
Stream size                              : 7.31 GiB (76%)
Title                                    : www.club-hd.com
Writing library                          : x264 core 120 r2120 0c7dab9
Language                                 : English
Default                                  : Yes
Forced                                   : No

Audio #1
ID                                       : 2
Format                                   : AC-3
Format/Info                              : Audio Coding 3
Mode extension                           : CM (complete main)
Format settings, Endianness              : Big
Codec ID                                 : A_AC3
Duration                                 : 1h 57mn
Bit rate mode                            : Constant
Bit rate                                 : 448 Kbps
Channel(s)                               : 6 channels
Channel positions                        : Front: L C R, Side: L R, LFE
Sampling rate                            : 48.0 KHz
Bit depth                                : 16 bits
Compression mode                         : Lossy
Delay relative to video                  : 1s 0ms
Stream size                              : 375 MiB (4%)
Title                                    : www.club-hd.com  >>  Latino AC3 5.1
Language                                 : Spanish
Default                                  : Yes
Forced                                   : No

Audio #2
ID                                       : 3
Format                                   : AC-3
Format/Info                              : Audio Coding 3
Mode extension                           : CM (complete main)
Format settings, Endianness              : Big
Codec ID                                 : A_AC3
Duration                                 : 1h 57mn
Bit rate mode                            : Constant
Bit rate                                 : 640 Kbps
Channel(s)                               : 6 channels
Channel positions                        : Front: L C R, Side: L R, LFE
Sampling rate                            : 48.0 KHz
Bit depth                                : 16 bits
Compression mode                         : Lossy
Stream size                              : 536 MiB (5%)
Title                                    : www.club-hd.com  >>  Inglés AC3 5.1
Language                                 : English
Default                                  : No
Forced                                   : No

Audio #3
ID                                       : 4
Format                                   : DTS
Format/Info                              : Digital Theater Systems
Format profile                           : ES
Mode                                     : 16
Format settings, Endianness              : Big
Codec ID                                 : A_DTS
Duration                                 : 1h 57mn
Bit rate mode                            : Constant
Bit rate                                 : 1 509 Kbps
Channel(s)                               : 6 channels
Channel positions                        : Front: L C R, Side: L R, LFE
Sampling rate                            : 48.0 KHz
Bit depth                                : 24 bits
Compression mode                         : Lossy
Stream size                              : 1.23 GiB (13%)
Title                                    : www.club-hd.com  >>  Inglés DTS 5.1
Language                                 : English
Default                                  : No
Forced                                   : No

Text #1
ID                                       : 5
Format                                   : UTF-8
Codec ID                                 : S_TEXT/UTF8
Codec ID/Info                            : UTF-8 Plain Text
Title                                    : Forzados
Language                                 : Spanish
Default                                  : Yes
Forced                                   : No

Text #2
ID                                       : 6
Format                                   : UTF-8
Codec ID                                 : S_TEXT/UTF8
Codec ID/Info                            : UTF-8 Plain Text
Language                                 : Spanish
Default                                  : No
Forced                                   : No




Descarga.jpg




google-drive-vip.png


Tenemos TODO el material de Club-HD disponible por Mega, enlaces 100% activos y online hasta la fecha

Llévate tus cuentas Mega PRO III gratis con tu membresía VIP!
Todos los posts vivos con links de Mega.
Todo el material de Club-HD desbloqueado y sin publicidad.

Obtén más información sobre nuestras Membresías VIP




MEGA.jpg

Tenemos TODO el material de Club-HD disponible por Mega, enlaces 100% activos y online hasta la fecha

Llévate tus cuentas Mega PRO III gratis con tu membresía VIP!
Todos los posts vivos con links de Mega.
Todo el material de Club-HD desbloqueado y sin publicidad.

Obtén más información sobre nuestras Membresías VIP

1FICHIER-BANNER.png

Tenemos TODO el material de Club-HD disponible por Mega, enlaces 100% activos y online hasta la fecha

Llévate tus cuentas Mega PRO III gratis con tu membresía VIP!
Todos los posts vivos con links de Mega.
Todo el material de Club-HD desbloqueado y sin publicidad.

Obtén más información sobre nuestras Membresías VIP

UPLOADED_BANNER.png

Para ver este contenido oculto, debes dar click en el botón"Like", o cualquiera de las otras reacciones:

Me Gusta Me Gusta, Me Encanta Me Encanta, Jaja Jaja, Wow Wow, Triste Triste, Molesto Molesto

 
Última edición por un moderador:
Desc_g_

Lastima que hayan metido a los vampiros y hombres lobo en esta saga... Pero bueno, a mi hermana le gusta y que hacemos xD

Agregando a la lista de descargas y esperando la ultima (Que bueno que no hicieron mas S_T1) para que las vea nuevamente pero ahora en HD

Gracias!!

Saludos :D
 
Última edición:
te felicito revolver por la rapidez de esta saga solo falta la ultima para cerrar con broche de oro esta saga
 
haber boy a probar ver esta saga que tal estara os cuento luego,descargandoooooo
 
:dplgar:

Que bien solo nos falta 1 ya vamos a completar la coleccion de esta saga, felicitaciones Revolver21 por la rapidez de tus aportes eres el mejor, :aplausos:

Muchas gracias :D
 
Volver