The Twilight Saga: Breaking Dawn - Part 2 (2012) 1080p BDRip Dual Latino-Inglés [Subt. Esp-Ing] (Fantástico. Romance)

Maestro Revolver

Administrador
Registro
9 Ago 2012
Mensajes
3.157
Reacciones (ptje)
54.886


The-Twilight-Saga-Breaking-Dawn-Part-2.jpg




FichaTecnica.jpg


TÍTULO ORIGINAL: The Twilight Saga: Breaking Dawn - Part 2
AÑO: 2012
DURACIÓN: 115 min.
PAÍS: USA
DIRECTOR: Bill Condon
GUIÓN: Melissa Rosenberg (Novela: Stephenie Meyer)
REPARTO: Kristen Stewart, Robert Pattinson, Taylor Lautner, Peter Facinelli, Dakota Fanning, Ashley Greene, Jackson Rathbone, Nikki Reed, Kellan Lutz, Peter Facinelli, Elizabeth Reaser, Michael Sheen, Billy Burke, Booboo Stewart, Cameron Bright, Michael Welch, Julia Jones, Kiowa Gordon, Alex Meraz, Valorie Curry, Christopher Heyerdahl, Daniel Cudmore, Charlie Bewley, Jamie Campbell Bower
PRODUCTORA: Summit Entertainment
GÉNERO: Fantástico. Romance. Thriller | Vampiros. Hombres lobo. Secuela
imdb-logo.png
: http://www.imdb.com/title/tt1673434/




Sinopsis.jpg


Tras convertirse en vampiro, Bella debe adaptarse a su nueva naturaleza. Cuando nace Renesmee, la familia Cullen tendrá que protegerse de la amenaza de los Volturi, pues existe una ley que prohíbe transformar a los niños en vampiros, ya que son difíciles de controlar y pueden provocar desastres que pongan en peligro la secreta existencia de los vampiros. Segunda parte de "Amanecer" y quinta entrega de la franquicia cinematográfica Crepúsculo, basada en las novelas de Stephenie Meyer.




Trailer.jpg






Capturas.jpg


1.jpg


2.jpg


3.jpg


4.jpg


5.jpg


6.jpg


7.jpg


8.jpg


9.jpg


La pelicula NO tiene ninguna marca... solo colocamos el nombre de esta web en las capturas




MediaInfo.jpg


Código:
General
Format                                   : Matroska
Format version                           : Version 2
File size                                : 8.82 GiB
Duration                                 : 1h 55mn
Overall bit rate                         : 11.0 Mbps
Movie name                               : www.club-hd.com
Encoded date                             : UTC 2013-02-19 04:52:25
Writing application                      : mkvmerge v5.7.0 ('The Whirlwind') built on Jul  8 2012 20:08:51
Writing library                          : libebml v1.2.3 + libmatroska v1.3.0

Video
ID                                       : 1
Format                                   : AVC
Format/Info                              : Advanced Video Codec
Format profile                           : [email protected]
Format settings, CABAC                   : Yes
Format settings, ReFrames                : 5 frames
Codec ID                                 : V_MPEG4/ISO/AVC
Duration                                 : 1h 55mn
Bit rate                                 : 8 364 Kbps
Width                                    : 1 920 pixels
Height                                   : 800 pixels
Display aspect ratio                     : 2.40:1
Frame rate mode                          : Constant
Frame rate                               : 23.976 fps
Color space                              : YUV
Chroma subsampling                       : 4:2:0
Bit depth                                : 8 bits
Scan type                                : Progressive
Bits/(Pixel*Frame)                       : 0.227
Stream size                              : 6.56 GiB (74%)
Title                                    : www.club-hd.com
Writing library                          : x264 core 129 r2245 bc13772
Language                                 : English
Default                                  : Yes
Forced                                   : No

Audio #1
ID                                       : 2
Format                                   : AC-3
Format/Info                              : Audio Coding 3
Mode extension                           : CM (complete main)
Format settings, Endianness              : Big
Codec ID                                 : A_AC3
Duration                                 : 1h 55mn
Bit rate mode                            : Constant
Bit rate                                 : 448 Kbps
Channel(s)                               : 6 channels
Channel positions                        : Front: L C R, Side: L R, LFE
Sampling rate                            : 48.0 KHz
Bit depth                                : 16 bits
Compression mode                         : Lossy
Delay relative to video                  : 300ms
Stream size                              : 369 MiB (4%)
Title                                    : www.club-hd.com  >>  Latino AC3 5.1
Language                                 : Spanish
Default                                  : Yes
Forced                                   : No

Audio #2
ID                                       : 3
Format                                   : AC-3
Format/Info                              : Audio Coding 3
Mode extension                           : CM (complete main)
Format settings, Endianness              : Big
Codec ID                                 : A_AC3
Duration                                 : 1h 55mn
Bit rate mode                            : Constant
Bit rate                                 : 640 Kbps
Channel(s)                               : 6 channels
Channel positions                        : Front: L C R, Side: L R, LFE
Sampling rate                            : 48.0 KHz
Bit depth                                : 16 bits
Compression mode                         : Lossy
Stream size                              : 527 MiB (6%)
Title                                    : www.club-hd.com  >>  Inglés AC3 5.1
Language                                 : English
Default                                  : No
Forced                                   : No

Audio #3
ID                                       : 4
Format                                   : DTS
Format/Info                              : Digital Theater Systems
Mode                                     : 16
Format settings, Endianness              : Big
Codec ID                                 : A_DTS
Duration                                 : 1h 55mn
Bit rate mode                            : Constant
Bit rate                                 : 1 509 Kbps
Channel(s)                               : 6 channels
Channel positions                        : Front: L C R, Side: L R, LFE
Sampling rate                            : 48.0 KHz
Bit depth                                : 24 bits
Compression mode                         : Lossy
Stream size                              : 1.21 GiB (14%)
Title                                    : www.club-hd.com  >>  Inglés DTS 5.1
Language                                 : English
Default                                  : No
Forced                                   : No

Text #1
ID                                       : 5
Format                                   : UTF-8
Codec ID                                 : S_TEXT/UTF8
Codec ID/Info                            : UTF-8 Plain Text
Language                                 : Spanish
Default                                  : No
Forced                                   : No

Text #2
ID                                       : 6
Format                                   : UTF-8
Codec ID                                 : S_TEXT/UTF8
Codec ID/Info                            : UTF-8 Plain Text
Language                                 : English
Default                                  : No
Forced                                   : No

Menu
00:00:00.000                             : en:00:00:00.000
00:08:04.067                             : en:00:08:04.067
00:13:35.398                             : en:00:13:35.398
00:18:36.073                             : en:00:18:36.073
00:22:11.080                             : en:00:22:11.080
00:30:03.343                             : en:00:30:03.343
00:38:06.159                             : en:00:38:06.159
00:44:23.619                             : en:00:44:23.619
00:48:35.830                             : en:00:48:35.830
00:52:31.440                             : en:00:52:31.440
00:58:11.947                             : en:00:58:11.947
01:02:10.352                             : en:01:02:10.352
01:08:26.060                             : en:01:08:26.060
01:11:38.503                             : en:01:11:38.503
01:20:35.456                             : en:01:20:35.456
01:24:57.509                             : en:01:24:57.509
01:32:17.157                             : en:01:32:17.157
01:38:08.966                             : en:01:38:08.966




Descarga.jpg




google-drive-vip.png


Tenemos TODO el material de Club-HD disponible por Mega, enlaces 100% activos y online hasta la fecha

Llévate tus cuentas Mega PRO III gratis con tu membresía VIP!
Todos los posts vivos con links de Mega.
Todo el material de Club-HD desbloqueado y sin publicidad.

Obtén más información sobre nuestras Membresías VIP




MEGA.jpg

Tenemos TODO el material de Club-HD disponible por Mega, enlaces 100% activos y online hasta la fecha

Llévate tus cuentas Mega PRO III gratis con tu membresía VIP!
Todos los posts vivos con links de Mega.
Todo el material de Club-HD desbloqueado y sin publicidad.

Obtén más información sobre nuestras Membresías VIP

1FICHIER-BANNER.png

Tenemos TODO el material de Club-HD disponible por Mega, enlaces 100% activos y online hasta la fecha

Llévate tus cuentas Mega PRO III gratis con tu membresía VIP!
Todos los posts vivos con links de Mega.
Todo el material de Club-HD desbloqueado y sin publicidad.

Obtén más información sobre nuestras Membresías VIP

UPLOADED_BANNER.png

Para ver este contenido oculto, debes dar click en el botón"Like", o cualquiera de las otras reacciones:

Me Gusta Me Gusta, Me Encanta Me Encanta, Jaja Jaja, Wow Wow, Triste Triste, Molesto Molesto

 
Última edición por un moderador:
:dplgar::dplgar::dplgar::dplgar::aplausos::aplausos::aplausos::aplausos:S_T1S_T1S_T1
 
Gran aporte amigo Revo, 10 estrellas para vos! :aplausos:
 
buenisimaaa! mmm no se si bajarla 1080 o 720..no mejor espero a la 720.gracias
 
Volver