The Twilight Saga: Eclipse (2010) 1080p BDRip Dual Latino-Inglés [Subt. Esp] (Fantástico. Romance)

Maestro Revolver

Administrador
Registro
9 Ago 2012
Mensajes
3.157
Reacciones (ptje)
55.041
Aporte recuperado gracias a nuestro amigo jovivaver

The-Twilight-Saga-Eclipse-1080p.jpg




FichaTecnica.jpg


TÍTULO ORIGINAL: The Twilight Saga: Eclipse (Twilight 3)
AÑO: 2010
DURACIÓN: 124 min.
PAÍS: USA
DIRECTOR: David Slade
GUIÓN: Melissa Rosenberg (Novela: Stephenie Meyer)
REPARTO: Kristen Stewart, Robert Pattinson, Taylor Lautner, Billy Burke, Ashley Greene, Jackson Rathbone, Nikki Reed, Elizabeth Reaser, Peter Facinelli, Dakota Fanning, Cameron Bright, Anna Kendrick, Bryce Dallas Howard, Michael Welch, Alex Meraz, Booboo Stewart, Catalina Sandino Moreno, Xavier Samuel
PRODUCTORA: Imprint Entertainment / Summit Entertainment
GÉNERO: Fantástico. Romance. Thriller | Vampiros. Hombres lobo. Secuela

imdb-logo.png
: http://www.imdb.es/title/tt1325004/




Sinopsis.jpg


Tercera entrega de la popular saga de vampiros basada en las novelas de Stephenie Meyer. Bella (Kristen Stewart) tendrá que elegir entre Edward (Robert Pattinson) y Jacob (Taylor Lautner). La ciudad de Seattle es devastada por una serie de misteriosos asesinatos que va en aumento, mientras una vampiresa busca venganza. Bella debe escoger entre su amor por Edward y su amistad con Jacob, consciente de que su decisión puede originar una batalla entre vampiros y licántropos. Rodeada de peligros y con su graduación acercándose, ahora se enfrenta a la decisión más importante de su vida... Dirige David Slade (30 Days of Night, Hard Candy).




Trailer.jpg






Capturas.jpg


1.jpg


2.jpg


3.jpg


4.jpg


5.jpg


6.jpg


La pelicula NO tiene ninguna marca... solo colocamos el nombre de esta web en las capturas




MediaInfo.jpg


Código:
General
Format                                   : Matroska
Format version                           : Version 2
File size                                : 9.67 GiB
Duration                                 : 2h 3mn
Overall bit rate                         : 11.2 Mbps
Movie name                               : www.club-hd.com
Encoded date                             : UTC 2013-02-14 23:53:37
Writing application                      : mkvmerge v5.7.0 ('The Whirlwind') built on Jul  8 2012 20:08:51
Writing library                          : libebml v1.2.3 + libmatroska v1.3.0

Video
ID                                       : 1
Format                                   : AVC
Format/Info                              : Advanced Video Codec
Format profile                           : [email protected]
Format settings, CABAC                   : Yes
Format settings, ReFrames                : 5 frames
Codec ID                                 : V_MPEG4/ISO/AVC
Duration                                 : 2h 3mn
Bit rate                                 : 8 578 Kbps
Width                                    : 1 920 pixels
Height                                   : 800 pixels
Display aspect ratio                     : 2.40:1
Frame rate mode                          : Constant
Frame rate                               : 23.976 fps
Color space                              : YUV
Chroma subsampling                       : 4:2:0
Bit depth                                : 8 bits
Scan type                                : Progressive
Bits/(Pixel*Frame)                       : 0.233
Stream size                              : 7.23 GiB (75%)
Title                                    : www.club-hd.com
Writing library                          : x264 core 107 r1772 c9dad9e
Language                                 : English
Default                                  : Yes
Forced                                   : No

Audio #1
ID                                       : 2
Format                                   : AC-3
Format/Info                              : Audio Coding 3
Mode extension                           : CM (complete main)
Format settings, Endianness              : Big
Codec ID                                 : A_AC3
Duration                                 : 2h 3mn
Bit rate mode                            : Constant
Bit rate                                 : 448 Kbps
Channel(s)                               : 6 channels
Channel positions                        : Front: L C R, Side: L R, LFE
Sampling rate                            : 48.0 KHz
Bit depth                                : 16 bits
Compression mode                         : Lossy
Delay relative to video                  : 1s 0ms
Stream size                              : 397 MiB (4%)
Title                                    : www.club-hd.com  >>  Latino AC3 5.1
Language                                 : Spanish
Default                                  : Yes
Forced                                   : No

Audio #2
ID                                       : 3
Format                                   : AC-3
Format/Info                              : Audio Coding 3
Mode extension                           : CM (complete main)
Format settings, Endianness              : Big
Codec ID                                 : A_AC3
Duration                                 : 2h 3mn
Bit rate mode                            : Constant
Bit rate                                 : 640 Kbps
Channel(s)                               : 6 channels
Channel positions                        : Front: L C R, Side: L R, LFE
Sampling rate                            : 48.0 KHz
Bit depth                                : 16 bits
Compression mode                         : Lossy
Stream size                              : 567 MiB (6%)
Title                                    : www.club-hd.com  >>  Inglés AC3 5.1
Language                                 : English
Default                                  : No
Forced                                   : No

Audio #3
ID                                       : 4
Format                                   : DTS
Format/Info                              : Digital Theater Systems
Mode                                     : 16
Format settings, Endianness              : Big
Codec ID                                 : A_DTS
Duration                                 : 2h 3mn
Bit rate mode                            : Constant
Bit rate                                 : 1 509 Kbps
Channel(s)                               : 6 channels
Channel positions                        : Front: L C R, Side: L R, LFE
Sampling rate                            : 48.0 KHz
Bit depth                                : 24 bits
Compression mode                         : Lossy
Stream size                              : 1.31 GiB (14%)
Title                                    : www.club-hd.com  >>  Inglés DTS 5.1
Language                                 : English
Default                                  : No
Forced                                   : No

Text
ID                                       : 5
Format                                   : UTF-8
Codec ID                                 : S_TEXT/UTF8
Codec ID/Info                            : UTF-8 Plain Text
Language                                 : Spanish
Default                                  : No
Forced                                   : No




CONTRASE%C3%91A-FINAL.png


Código:
www.club-hd.com




Descarga.jpg



MEGA.jpg

Tenemos TODO el material de Club-HD disponible por Mega, enlaces 100% activos y online hasta la fecha

Llévate tus cuentas Mega PRO III gratis con tu membresía VIP!
Todos los posts vivos con links de Mega.
Todo el material de Club-HD desbloqueado y sin publicidad.

Obtén más información sobre nuestras Membresías VIP



UPLOADED_BANNER.png

Para ver este contenido oculto, debes dar click en el botón"Like", o cualquiera de las otras reacciones:

Me Gusta Me Gusta, Me Encanta Me Encanta, Jaja Jaja, Wow Wow, Triste Triste, Molesto Molesto
 
Última edición por un moderador:
:aplausos:

Excelente, tu vas a toda M0t0 una tras otra, no das tiempo de nada :LXR:

Muchas gracias por tus super aportes, cuando te dices a subir una saga no paras :aplausos:

:thank-you:
 
Desc_g_

Ola k ase?
Subiendo toda la saga o ke ase?

=P

Una tras otra, no puede ser, a la lista de descargas ya que jajaja

Mi hermana estará agradecida, gracias!!!

Saludos :D
 
tu me haces quedar como los grandes delante de mi novia aunque no sea fan de la saga te agradezco mucho:dplgar:
 
Que paso antes eras chevere xD jajaja es mentira pero enserio esa vaina párese una novela barata xD



amigo si no te agrada no lo mires y asi no pierdes el tiempo pero esto es una pagina de peliculas y hay miles de gustos lo importante es la labor que se hace aqui y lo cuesta mantener un tipo
de pagina como esta cuesta asi que por respeto respeta los gustos de los demas y el gran trabajo que se realiza en esta gran pagina sulk2
 
amigo si no te agrada no lo mires y asi no pierdes el tiempo pero esto es una pagina de peliculas y hay miles de gustos lo importante es la labor que se hace aqui y lo cuesta mantener un tipo
de pagina como esta cuesta asi que por respeto respeta los gustos de los demas y el gran trabajo que se realiza en esta gran pagina sulk2

alguien no entiende el sarcasmo...:plmfc:
 
Volver