The Twilight Saga: New Moon (2009) 1080p BDRip Dual Latino-Inglés [Subt. Esp] (Fantástico. Romance)

Maestro Revolver

Administrador
Registro
9 Ago 2012
Mensajes
3.157
Reacciones (ptje)
54.886


The-Twilight-Saga-New-Moon-1080p.jpg




FichaTecnica.jpg


TÍTULO ORIGINAL: The Twilight Saga: New Moon (Twilight 2)
AÑO: 2009
DURACIÓN: 130 min.
PAÍS: USA
DIRECTOR: Chris Weitz
GUIÓN: Melissa Rosenberg (Novela: Stephenie Meyer)
REPARTO: Kristen Stewart, Robert Pattinson, Taylor Lautner, Nikki Reed, Ashley Greene, Jackson Rathbone, Kellan Lutz, Dakota Fanning, Michael Sheen, Anna Kendrick, Graham Greene, Cameron Bright, Edi Gathegi, Rachelle Lefevre, Jamie Campbell Bower
PRODUCTORA: Summit Entertainment / Imprint Entertainment / Troy Rodriguez Productions
GÉNERO: Fantástico. Romance. Thriller | Vampiros. Hombres lobo. Secuela
imdb-logo.png
: http://www.imdb.es/title/tt1259571/




Sinopsis.jpg


Edward Cullen (Robert Pattinson) decide abandonar a Bella Swan (Kristen Stewart) para mantenerla alejada de los peligros del mundo vampírico. Con la ayuda de Jacob Black (Taylor Lautner), su amigo de la infancia y miembro de la misteriosa tribu quileute, Bella intentará superar el abandono de Edward, que la ha dejado sumida en el mayor de los desconsuelos. Pero los peligros siguen acechando a la joven; nuevas y asombrosas criaturas sobrenaturales se cruzarán en su camino, y Bella sólo contará con el apoyo del cada vez más cercano e irresistible Jacob. Repentinamente, Bella se encuentra inmersa en el mundo de los hombres lobo, ancestrales enemigos de los vampiros, y su lealtad es puesta a prueba...




Trailer.jpg






Capturas.jpg


1.jpg


2.jpg


3.jpg


4.jpg


5.jpg


6.jpg


La pelicula NO tiene ninguna marca... solo colocamos el nombre de esta web en las capturas




MediaInfo.jpg


Código:
General
Format                                   : Matroska
Format version                           : Version 2
File size                                : 11.9 GiB
Duration                                 : 2h 10mn
Overall bit rate                         : 13.1 Mbps
Movie name                               : www.club-hd.com
Encoded date                             : UTC 2013-02-14 16:16:21
Writing application                      : mkvmerge v5.7.0 ('The Whirlwind') built on Jul  8 2012 20:08:51
Writing library                          : libebml v1.2.3 + libmatroska v1.3.0

Video
ID                                       : 1
Format                                   : AVC
Format/Info                              : Advanced Video Codec
Format profile                           : [email protected]
Format settings, CABAC                   : Yes
Format settings, ReFrames                : 5 frames
Codec ID                                 : V_MPEG4/ISO/AVC
Duration                                 : 2h 10mn
Bit rate                                 : 10.5 Mbps
Width                                    : 1 920 pixels
Height                                   : 800 pixels
Display aspect ratio                     : 2.40:1
Frame rate mode                          : Constant
Frame rate                               : 23.976 fps
Color space                              : YUV
Chroma subsampling                       : 4:2:0
Bit depth                                : 8 bits
Scan type                                : Progressive
Bits/(Pixel*Frame)                       : 0.284
Stream size                              : 9.33 GiB (78%)
Title                                    : www.club-hd.com
Writing library                          : x264 core 88 r1462 7fcffde
Language                                 : English
Default                                  : Yes
Forced                                   : No

Audio #1
ID                                       : 2
Format                                   : AC-3
Format/Info                              : Audio Coding 3
Mode extension                           : CM (complete main)
Format settings, Endianness              : Big
Codec ID                                 : A_AC3
Duration                                 : 2h 10mn
Bit rate mode                            : Constant
Bit rate                                 : 448 Kbps
Channel(s)                               : 6 channels
Channel positions                        : Front: L C R, Side: L R, LFE
Sampling rate                            : 48.0 KHz
Bit depth                                : 16 bits
Compression mode                         : Lossy
Delay relative to video                  : 28ms
Stream size                              : 419 MiB (3%)
Title                                    : www.club-hd.com  >>  Latino AC3 5.1
Language                                 : Spanish
Default                                  : Yes
Forced                                   : No

Audio #2
ID                                       : 3
Format                                   : AC-3
Format/Info                              : Audio Coding 3
Mode extension                           : CM (complete main)
Format settings, Endianness              : Big
Codec ID                                 : A_AC3
Duration                                 : 2h 10mn
Bit rate mode                            : Constant
Bit rate                                 : 640 Kbps
Channel(s)                               : 6 channels
Channel positions                        : Front: L C R, Side: L R, LFE
Sampling rate                            : 48.0 KHz
Bit depth                                : 16 bits
Compression mode                         : Lossy
Delay relative to video                  : -1s 0ms
Stream size                              : 598 MiB (5%)
Title                                    : www.club-hd.com  >>  Inglés AC3 5.1
Language                                 : English
Default                                  : No
Forced                                   : No

Audio #3
ID                                       : 4
Format                                   : DTS
Format/Info                              : Digital Theater Systems
Mode                                     : 16
Format settings, Endianness              : Big
Codec ID                                 : A_DTS
Duration                                 : 2h 10mn
Bit rate mode                            : Constant
Bit rate                                 : 1 509 Kbps
Channel(s)                               : 6 channels
Channel positions                        : Front: L C R, Side: L R, LFE
Sampling rate                            : 48.0 KHz
Bit depth                                : 24 bits
Compression mode                         : Lossy
Delay relative to video                  : -1s 0ms
Stream size                              : 1.38 GiB (12%)
Title                                    : www.club-hd.com  >>  Inglés DTS 5.1
Language                                 : English
Default                                  : No
Forced                                   : No

Text
ID                                       : 5
Format                                   : UTF-8
Codec ID                                 : S_TEXT/UTF8
Codec ID/Info                            : UTF-8 Plain Text
Language                                 : Spanish
Default                                  : No
Forced                                   : No




Descarga.jpg




google-drive-vip.png


Tenemos TODO el material de Club-HD disponible por Mega, enlaces 100% activos y online hasta la fecha

Llévate tus cuentas Mega PRO III gratis con tu membresía VIP!
Todos los posts vivos con links de Mega.
Todo el material de Club-HD desbloqueado y sin publicidad.

Obtén más información sobre nuestras Membresías VIP




MEGA.jpg

Tenemos TODO el material de Club-HD disponible por Mega, enlaces 100% activos y online hasta la fecha

Llévate tus cuentas Mega PRO III gratis con tu membresía VIP!
Todos los posts vivos con links de Mega.
Todo el material de Club-HD desbloqueado y sin publicidad.

Obtén más información sobre nuestras Membresías VIP



1FICHIER-BANNER.png

Tenemos TODO el material de Club-HD disponible por Mega, enlaces 100% activos y online hasta la fecha

Llévate tus cuentas Mega PRO III gratis con tu membresía VIP!
Todos los posts vivos con links de Mega.
Todo el material de Club-HD desbloqueado y sin publicidad.

Obtén más información sobre nuestras Membresías VIP



UPLOADED_BANNER.png

Para ver este contenido oculto, debes dar click en el botón"Like", o cualquiera de las otras reacciones:

Me Gusta Me Gusta, Me Encanta Me Encanta, Jaja Jaja, Wow Wow, Triste Triste, Molesto Molesto

OPENLOAD.png

Para ver este contenido oculto, debes dar click en el botón"Like", o cualquiera de las otras reacciones:

Me Gusta Me Gusta, Me Encanta Me Encanta, Jaja Jaja, Wow Wow, Triste Triste, Molesto Molesto

 
Última edición por un moderador:
:aplausos:

Excelente Aporte, las tengo en 720p segun veo ya casi tenemos Amancer parte 2 en 1080 en latino :OHHH:

Tu como siempre te luces con calidad de aportes y de imagen Pl4yb0y.

Bendiciones y muchas, muchas, muchisimas gracias por el tiempo dedicado a enriquecer esta comunidad y a rebosar nuestros discos :D

Gracias.

:thank-you:
 
esta calidad si que vale la pena, gracias revolver por tu esfuerzo en subir todos estos aportes
 
Desc_g_

Para mi hermana, a reemplazarlas por las 720p que tenia, lastima que tomaran mucho espacio de mi disco duro y a mi ni me gustan xD

Gracias!!!

Saludos :D
 
creo que esta es la que mas le gusta a mi novia y me pregunto porque sera Pnsand0 jajajaja muchas gracias revolver todas tus películas
son dignas de descargar
 
gracias por publicar Twilight , New Moon la cual es revelada el secreto de los hombres lobos ,, en fin ver para disfrutarla,,, a descargar y poder ver bien la historia de bella y Edward a esperar las demás gracias revolver21 tremendo a portazo que es de 1080p saldos
 
la verdad gracias jejejej mi vieja esta feliz por estas movies
 
Volver