The Watch (2012) m-720p Dual Latino-Inglés [Subt. Esp-Ing] (Comedia. Ciencia ficción)

Maestro Revolver

Well-known member
Miembro del Staff
Administrador
Registro
9 Ago 2012
Mensajes
3.569
Reacciones
59.350
Puntos
113

Reputation:









TÍTULO ORIGINAL: The Watch (Neighborhood Watch)
AÑO: 2012
DURACIÓN: 98 min.
PAÍS: USA
DIRECTOR: Akiva Schaffer
GUIÓN: Evan Goldberg, Seth Rogen
REPARTO: Ben Stiller, Vince Vaughn, Jonah Hill, Richard Ayoade, Rosemarie DeWitt, Nicholas Braun, Billy Crudup
PRODUCTORA: 21 Laps Entertainment / Twentieth Century Fox
GÉNERO: Comedia. Ciencia ficción | Extraterrestres
http://www.imdb.com/title/tt1298649/






Tras el asesinato de uno de los vecinos de un barrio, se crea una patrulla de vigilancia que acabará descubriendo una trama alienígena para destruir el mundo.
























La pelicula NO tiene ninguna marca... solo colocamos el nombre de esta web en las capturas






Código:
General
Format                           : Matroska
Format version                   : Version 2
File size                        : 2.57 GiB
Duration                         : 1h 42mn
Overall bit rate                 : 3 601 Kbps
Movie name                       : www.club-hd.com
Encoded date                     : UTC 2012-11-05 23:47:07
Writing application              : mkvmerge v5.7.0 ('The Whirlwind') built on Jul  8 2012 20:08:51
Writing library                  : libebml v1.2.3 + libmatroska v1.3.0

Video
ID                               : 1
Format                           : AVC
Format/Info                      : Advanced Video Codec
Format profile                   : High@L4.1
Format settings, CABAC           : Yes
Format settings, ReFrames        : 5 frames
Codec ID                         : V_MPEG4/ISO/AVC
Duration                         : 1h 42mn
Bit rate                         : 2 710 Kbps
Width                            : 1 280 pixels
Height                           : 544 pixels
Display aspect ratio             : 2.35:1
Frame rate                       : 23.976 fps
Color space                      : YUV
Chroma subsampling               : 4:2:0
Bit depth                        : 8 bits
Scan type                        : Progressive
Bits/(Pixel*Frame)               : 0.162
Stream size                      : 1.88 GiB (73%)
Title                            : www.club-hd.com
Writing library                  : x264 core 128 r2216 198a7ea
Language                         : English
Default                          : Yes
Forced                           : No

Audio #1
ID                               : 2
Format                           : AC-3
Format/Info                      : Audio Coding 3
Mode extension                   : CM (complete main)
Codec ID                         : A_AC3
Duration                         : 1h 42mn
Bit rate mode                    : Constant
Bit rate                         : 448 Kbps
Channel(s)                       : 6 channels
Channel positions                : Front: L C R, Side: L R, LFE
Sampling rate                    : 48.0 KHz
Bit depth                        : 16 bits
Compression mode                 : Lossy
Delay relative to video          : 50ms
Stream size                      : 327 MiB (12%)
Title                            : www.club-hd.com  >>  Latino
Language                         : Spanish
Default                          : Yes
Forced                           : No

Audio #2
ID                               : 3
Format                           : AC-3
Format/Info                      : Audio Coding 3
Mode extension                   : CM (complete main)
Codec ID                         : A_AC3
Duration                         : 1h 42mn
Bit rate mode                    : Constant
Bit rate                         : 448 Kbps
Channel(s)                       : 6 channels
Channel positions                : Front: L C R, Side: L R, LFE
Sampling rate                    : 48.0 KHz
Bit depth                        : 16 bits
Compression mode                 : Lossy
Stream size                      : 327 MiB (12%)
Title                            : www.club-hd.com  >>  Inglés
Language                         : English
Default                          : No
Forced                           : No

Text #1
ID                               : 4
Format                           : UTF-8
Codec ID                         : S_TEXT/UTF8
Codec ID/Info                    : UTF-8 Plain Text
Language                         : Spanish
Default                          : No
Forced                           : No

Text #2
ID                               : 5
Format                           : UTF-8
Codec ID                         : S_TEXT/UTF8
Codec ID/Info                    : UTF-8 Plain Text
Language                         : English
Default                          : No
Forced                           : No

Menu
00:00:00.000                     : en:00:00:00.000
00:04:17.257                     : en:00:04:17.257
00:07:04.507                     : en:00:07:04.507
00:09:58.807                     : en:00:09:58.807
00:12:23.660                     : en:00:12:23.660
00:18:01.747                     : en:00:18:01.747
00:20:08.207                     : en:00:20:08.207
00:22:10.538                     : en:00:22:10.538
00:24:21.001                     : en:00:24:21.001
00:29:13.627                     : en:00:29:13.627
00:32:18.061                     : en:00:32:18.061
00:33:15.911                     : en:00:33:15.911
00:37:53.855                     : en:00:37:53.855
00:39:25.238                     : en:00:39:25.238
00:42:14.532                     : en:00:42:14.532
00:47:40.149                     : en:00:47:40.149
00:51:35.259                     : en:00:51:35.259
00:55:15.020                     : en:00:55:15.020
00:57:11.637                     : en:00:57:11.637
00:59:47.000                     : en:00:59:47.000
01:01:12.919                     : en:01:01:12.919
01:05:16.663                     : en:01:05:16.663
01:06:48.379                     : en:01:06:48.379
01:09:24.160                     : en:01:09:24.160
01:12:33.558                     : en:01:12:33.558
01:14:26.045                     : en:01:14:26.045
01:18:41.675                     : en:01:18:41.675
01:20:22.026                     : en:01:20:22.026
01:22:05.879                     : en:01:22:05.879
01:25:33.295                     : en:01:25:33.295
01:28:48.573                     : en:01:28:48.573
01:35:36.814                     : en:01:35:36.814










Enlaces de Mega y Fireload solo disponibles para Miembros VIP

Compra tu Membresía VIP y apoya a Club-HD!

ATENCIÓN! Tenemos TODO el material de Club-HD disponible por Mega y Fireload, enlaces 100% activos y online hasta la fecha

Llévate tus cuentas Mega PRO II gratis con tu membresía VIP!
Todos los posts vivos con links de Mega y Fireload.
Todo el material de Club-HD desbloqueado y sin publicidad.

Click Aquí para más información.




Enlaces de Mega y Fireload solo disponibles para Miembros VIP

Compra tu Membresía VIP y apoya a Club-HD!

ATENCIÓN! Tenemos TODO el material de Club-HD disponible por Mega y Fireload, enlaces 100% activos y online hasta la fecha

Llévate tus cuentas Mega PRO II gratis con tu membresía VIP!
Todos los posts vivos con links de Mega y Fireload.
Todo el material de Club-HD desbloqueado y sin publicidad.

Click Aquí para más información.


Para ver este contenido oculto, debes dar click en una de las siguientes reacciones : Like Like, Love Love, Haha Haha, Wow Wow, Sad Sad, Angry Angry

 
Última edición:

Yonatan

Admin
Miembro del Staff
Administrador
Registro
27 Ago 2012
Mensajes
1.768
Reacciones
3.728
Puntos
113
Edad
28
Ubicación
Chile, Sexta Región

Reputation:

:aplausos: :LXR::LXR::LXR::LXR: revolver agregar ahora mismo a la lista de descargas :D
 

maikol

New member
Registro
24 Oct 2012
Mensajes
298
Reacciones
4
Puntos
0
Edad
29

Reputation:

gracias muí interesante peli c agradece muxo
 

Howl

Well-known member
Miembro VIP
Registro
28 Ago 2012
Mensajes
1.765
Reacciones
87
Puntos
48

Reputation:

:dplgar: que bien a bajar se dijo
pd: acabo de ver la propaganda en la tele de solo en cines xD :slbd:
 

NETO

Member
Registro
29 Ago 2012
Mensajes
190
Reacciones
1
Puntos
18
Edad
39

Reputation:

Muy bien amigo a descargar gracias
 

Usuarios Que Están Viendo Este Tema (Total: 1, Miembros: 0, Invitados: 1)

Arriba