The Way, Way Back (2013) 720p BDRip Dual Latino-Inglés [Subt. Esp] (Comedia)

Maestro Revolver

Well-known member
Miembro del Staff
Administrador
Registro
9 Ago 2012
Mensajes
3.567








TÍTULO ORIGINAL: The Way, Way Back
AÑO: 2013
DURACIÓN: 103 min.
PAÍS: USA
DIRECTOR: Nat Faxon, Jim Rash
GUIÓN: Nat Faxon, Jim Rash
REPARTO: Liam James, Steve Carell, Toni Collette, Sam Rockwell, Allison Janney, Annasophia Robb, Maya Rudolph, Rob Corddry, Amanda Peet, Zoe Levin, Jim Rash, Nat Faxon
PRODUCTORA: Fox Searchlight Pictures / Sycamore Pictures / The Walsh Company / Odd Lot Entertainment
GÉNERO: Comedia | Comedia dramática. Adolescencia
: http://www.imdb.com/title/tt1727388/






Duncan (Liam James) es un adolescente de 14 años que, en el transcurso de un verano, tratará de encontrar la fuerza que precisa para poder encontrarse a sí mismo, y de paso, enfrentarse a su padrastro (Steve Carell), que bebe, consume drogas y se va de juerga con otras mujeres, y para volver a relacionarse con su madre (Toni Collette).
























La pelicula NO tiene ninguna marca... solo colocamos el nombre de esta web en las capturas






Código:
General
Format                                   : Matroska
Format version                           : Version 2
File size                                : 3.93 GiB
Duration                                 : 1h 43mn
Overall bit rate                         : 5 433 Kbps
Movie name                               : www.club-hd.com
Encoded date                             : UTC 2013-10-11 21:19:31
Writing application                      : mkvmerge v5.7.0 ('The Whirlwind') built on Jul  8 2012 20:08:51
Writing library                          : libebml v1.2.3 + libmatroska v1.3.0

Video
ID                                       : 1
Format                                   : AVC
Format/Info                              : Advanced Video Codec
Format profile                           : High@L4.1
Format settings, CABAC                   : Yes
Format settings, ReFrames                : 5 frames
Codec ID                                 : V_MPEG4/ISO/AVC
Duration                                 : 1h 43mn
Bit rate                                 : 4 535 Kbps
Width                                    : 1 280 pixels
Height                                   : 696 pixels
Display aspect ratio                     : 1.85:1
Frame rate mode                          : Constant
Frame rate                               : 23.976 fps
Color space                              : YUV
Chroma subsampling                       : 4:2:0
Bit depth                                : 8 bits
Scan type                                : Progressive
Bits/(Pixel*Frame)                       : 0.212
Stream size                              : 3.20 GiB (82%)
Title                                    : www.club-hd.com
Writing library                          : x264 core 138 r2358 9e941d1
Language                                 : English
Default                                  : Yes
Forced                                   : No

Audio #1
ID                                       : 2
Format                                   : AC-3
Format/Info                              : Audio Coding 3
Mode extension                           : CM (complete main)
Format settings, Endianness              : Big
Codec ID                                 : A_AC3
Duration                                 : 1h 43mn
Bit rate mode                            : Constant
Bit rate                                 : 448 Kbps
Channel(s)                               : 6 channels
Channel positions                        : Front: L C R, Side: L R, LFE
Sampling rate                            : 48.0 KHz
Bit depth                                : 16 bits
Compression mode                         : Lossy
Stream size                              : 332 MiB (8%)
Title                                    : www.club-hd.com  >>  Latino
Language                                 : Spanish
Default                                  : Yes
Forced                                   : No

Audio #2
ID                                       : 3
Format                                   : AC-3
Format/Info                              : Audio Coding 3
Mode extension                           : CM (complete main)
Format settings, Endianness              : Big
Codec ID                                 : A_AC3
Duration                                 : 1h 43mn
Bit rate mode                            : Constant
Bit rate                                 : 448 Kbps
Channel(s)                               : 6 channels
Channel positions                        : Front: L C R, Side: L R, LFE
Sampling rate                            : 48.0 KHz
Bit depth                                : 16 bits
Compression mode                         : Lossy
Stream size                              : 332 MiB (8%)
Title                                    : www.club-hd.com  >>  Inglés
Language                                 : English
Default                                  : No
Forced                                   : No

Text #1
ID                                       : 4
Format                                   : UTF-8
Codec ID                                 : S_TEXT/UTF8
Codec ID/Info                            : UTF-8 Plain Text
Title                                    : Forzados
Language                                 : Spanish
Default                                  : Yes
Forced                                   : No

Text #2
ID                                       : 5
Format                                   : UTF-8
Codec ID                                 : S_TEXT/UTF8
Codec ID/Info                            : UTF-8 Plain Text
Title                                    : Completos
Language                                 : Spanish
Default                                  : No
Forced                                   : No

Menu
00:00:00.000                             : en:00:00:00.000
00:03:38.218                             : en:00:03:38.218
00:04:50.207                             : en:00:04:50.207
00:09:56.471                             : en:00:09:56.471
00:12:51.521                             : en:00:12:51.521
00:15:47.363                             : en:00:15:47.363
00:17:52.697                             : en:00:17:52.697
00:20:10.960                             : en:00:20:10.960
00:23:56.644                             : en:00:23:56.644
00:27:51.837                             : en:00:27:51.837
00:31:14.498                             : en:00:31:14.498
00:34:02.082                             : en:00:34:02.082
00:36:06.998                             : en:00:36:06.998
00:38:39.400                             : en:00:38:39.400
00:40:35.308                             : en:00:40:35.308
00:43:44.330                             : en:00:43:44.330
00:47:57.291                             : en:00:47:57.291
00:49:34.847                             : en:00:49:34.847
00:55:34.748                             : en:00:55:34.748
00:59:23.143                             : en:00:59:23.143
01:03:05.490                             : en:01:03:05.490
01:07:39.681                             : en:01:07:39.681
01:10:52.415                             : en:01:10:52.415
01:13:41.709                             : en:01:13:41.709
01:16:07.188                             : en:01:16:07.188
01:21:03.067                             : en:01:21:03.067
01:24:38.657                             : en:01:24:38.657
01:27:52.642                             : en:01:27:52.642
01:29:35.453                             : en:01:29:35.453
01:31:55.427                             : en:01:31:55.427
01:33:58.383                             : en:01:33:58.383
01:35:03.323                             : en:01:35:03.323








Enlaces de Mega y Google Drive solo disponibles para Miembros VIP

Compra tu Membresía VIP y apoya a Club-HD!

ATENCIÓN! Tenemos TODO el material de Club-HD disponible por Mega y Google Drive, enlaces 100% activos y online hasta la fecha

Llévate tus cuentas Mega PRO III gratis con tu membresía VIP!
Todos los posts vivos con links de Mega y Google Drive.
Todo el material de Club-HD desbloqueado y sin publicidad.

Click Aquí para más información.


Para ver este contenido oculto, debes dar click en una de las siguientes reacciones : Like Like, Love Love, Haha Haha, Wow Wow, Sad Sad, Angry Angry



 
Última edición por un moderador:

Usuarios Que Están Viendo Este Tema (Total: 1, Miembros: 0, Invitados: 1)

Quién Leyó Este Tema (Total Miembros: 2)

Arriba