The Wedding Singer (1998) EXTENDED 720p BDRip Dual Latino-Inglés [Subt. Esp] (Romance. Comedia)

Maestro Revolver

Well-known member
Miembro del Staff
Administrador
Registro
9 Ago 2012
Mensajes
3.567








TÍTULO ORIGINAL: The Wedding Singer
AÑO: 1998
DURACIÓN: 97 min.
PAÍS: USA
DIRECTOR: Frank Coraci
GUIÓN: Tim Herlihy
REPARTO: Drew Barrymore, Adam Sandler, Christine Taylor, Allen Covert, Matthew Glave, Ellen Albertini Dow, Angela Featherstone, Alexis Arquette, Christina Pickles, Jodi Thelen, Billy Idol, Steve Buscemi
PRODUCTORA: New Line Cinema
GÉNERO: Romance. Comedia | Comedia romántica. Adolescencia. Bodas. Años 80
: http://www.imdb.com/title/tt0120888/






Robbie trabaja como cantante en banquetes de boda, y está a punto de casarse. Ese día tiene que trabajar como camarera Julia, una joven que también está a punto de casarse y en cuya boda actuará Robbie. Pero a Robbie le dejará plantado su novia en el altar, y Julia dejará a su novio tras descubrir su verdadera personalidad, lo que provocará que ambos se conozcan e inicien una relación.
























La pelicula NO tiene ninguna marca... solo colocamos el nombre de esta web en las capturas






Código:
General
Format                                   : Matroska
Format version                           : Version 2
File size                                : 3.75 GiB
Duration                                 : 1h 40mn
Overall bit rate                         : 5 355 Kbps
Movie name                               : www.club-hd.com
Encoded date                             : UTC 2013-05-12 20:13:39
Writing application                      : mkvmerge v5.7.0 ('The Whirlwind') built on Jul  8 2012 20:08:51
Writing library                          : libebml v1.2.3 + libmatroska v1.3.0

Video
ID                                       : 1
Format                                   : AVC
Format/Info                              : Advanced Video Codec
Format profile                           : High@L4.1
Format settings, CABAC                   : Yes
Format settings, ReFrames                : 9 frames
Codec ID                                 : V_MPEG4/ISO/AVC
Duration                                 : 1h 40mn
Bit rate                                 : 4 544 Kbps
Width                                    : 1 280 pixels
Height                                   : 692 pixels
Display aspect ratio                     : 1.85:1
Frame rate mode                          : Constant
Frame rate                               : 23.976 fps
Color space                              : YUV
Chroma subsampling                       : 4:2:0
Bit depth                                : 8 bits
Scan type                                : Progressive
Bits/(Pixel*Frame)                       : 0.214
Stream size                              : 3.18 GiB (85%)
Title                                    : www.club-hd.com
Writing library                          : x264 core 112 r1834 a51816a
Language                                 : English
Default                                  : Yes
Forced                                   : No

Audio #1
ID                                       : 2
Format                                   : AC-3
Format/Info                              : Audio Coding 3
Mode extension                           : CM (complete main)
Format settings, Endianness              : Big
Codec ID                                 : A_AC3
Duration                                 : 1h 40mn
Bit rate mode                            : Constant
Bit rate                                 : 256 Kbps
Channel(s)                               : 2 channels
Channel positions                        : Front: L R
Sampling rate                            : 48.0 KHz
Bit depth                                : 16 bits
Compression mode                         : Lossy
Stream size                              : 183 MiB (5%)
Title                                    : www.club-hd.com  >>  Latino
Language                                 : Spanish
Default                                  : Yes
Forced                                   : No

Audio #2
ID                                       : 3
Format                                   : AC-3
Format/Info                              : Audio Coding 3
Mode extension                           : CM (complete main)
Format settings, Endianness              : Big
Codec ID                                 : A_AC3
Duration                                 : 1h 40mn
Bit rate mode                            : Constant
Bit rate                                 : 448 Kbps
Channel(s)                               : 6 channels
Channel positions                        : Front: L C R, Side: L R, LFE
Sampling rate                            : 48.0 KHz
Bit depth                                : 16 bits
Compression mode                         : Lossy
Stream size                              : 321 MiB (8%)
Title                                    : www.club-hd.com  >>  Inglés
Language                                 : English
Default                                  : No
Forced                                   : No

Text #1
ID                                       : 4
Format                                   : UTF-8
Codec ID                                 : S_TEXT/UTF8
Codec ID/Info                            : UTF-8 Plain Text
Title                                    : Forzados
Language                                 : Spanish
Default                                  : Yes
Forced                                   : No

Text #2
ID                                       : 5
Format                                   : UTF-8
Codec ID                                 : S_TEXT/UTF8
Codec ID/Info                            : UTF-8 Plain Text
Language                                 : Spanish
Default                                  : No
Forced                                   : No

Menu
00:00:00.000                             : en: Opening Titles
00:03:30.919                             : en: Wedding Speech
00:07:30.366                             : en: The New Waitress
00:12:09.186                             : en: Robbie's Wedding
00:17:36.513                             : en: Relationship Talk
00:21:16.275                             : en: Vegas Proposal
00:22:55.708                             : en: Mental Situation
00:24:48.737                             : en: Love Stinks
00:31:21.170                             : en: Engagement Party
00:36:24.557                             : en: Mazeltov
00:43:18.012                             : en: Auditions
00:49:15.327                             : en: Wedding Plans
00:51:55.153                             : en: Church Tongue
00:55:59.481                             : en: Rosie's Advice
00:59:29.440                             : en: Double Date
01:05:05.735                             : en: A Thing for Julia
01:07:38.220                             : en: Hangover
01:09:15.109                             : en: Material Boy
01:12:47.571                             : en: Hold Me
01:15:55.842                             : en: Cold Feet
01:21:11.032                             : en: Linda's Back
01:25:40.343                             : en: 50th Wedding Anniversary
01:28:54.037                             : en: Grow Old With You
01:35:52.663                             : en: End Credits



Nota: Al ser una versión "EXTENDED" llamada también "Totally Awesome Edition" edite el audio latino agregando unas partes en ingles y también hice unos subtítulos forzados para esas escenas. Todo este trabajo lo hace un parte Exclusivo de Club-HD.
Que disfruten de la película .









Enlaces de Mega y Google Drive solo disponibles para Miembros VIP

Compra tu Membresía VIP y apoya a Club-HD!

ATENCIÓN! Tenemos TODO el material de Club-HD disponible por Mega y Google Drive, enlaces 100% activos y online hasta la fecha

Llévate tus cuentas Mega PRO III gratis con tu membresía VIP!
Todos los posts vivos con links de Mega y Google Drive.
Todo el material de Club-HD desbloqueado y sin publicidad.

Click Aquí para más información.


Para ver este contenido oculto, debes dar click en una de las siguientes reacciones : Like Like, Love Love, Haha Haha, Wow Wow, Sad Sad, Angry Angry



 
Última edición por un moderador:

orcko5001

Active member
Registro
27 Ago 2012
Mensajes
288
Edad
38
muchas gracias man la descargue 2 veces sin exito hasta que vi lo del problema de subida de archivos aun asi muchas gracias por volver a subir la pelicula saludos
 

edavid

New member
Registro
12 Sep 2012
Mensajes
309
Ubicación
llavallol
buenas noche cuando descompromo la peli me tira este herror la parte2 rar el archibo tiene un formato desconosido o esta dañado.borre todos los rar y al otro dia lo baje denuebo y me tira el mismo herror
 

Nosferatu

Well-known member
Miembro del Staff
Súper Moderador
Miembro VIP
Registro
31 Ago 2012
Mensajes
2.275
Edad
45
Ubicación
Welcome to Hell!!
buenas noche cuando descompromo la peli me tira este herror la parte2 rar el archibo tiene un formato desconosido o esta dañado.borre todos los rar y al otro dia lo baje denuebo y me tira el mismo herror
Antes de todo revisalos con el Archivo SFV. a ver que te dice.
y nos comentas como te fue.

Saludos!!!
 
Última edición:

Usuarios Que Están Viendo Este Tema (Total: 1, Miembros: 0, Invitados: 1)

Quién Leyó Este Tema (Total Miembros: 4)

Arriba