The Wizard of Oz (1939) m-1080p BDRip Dual Latino-Inglés [Subt. Esp] (Musical. Fantástico)

Maestro Revolver

Well-known member
Miembro del Staff
Administrador
Registro
9 Ago 2012
Mensajes
3.567

Aporte recuperado gracias a nuestro amigo clasaase







TÍTULO ORIGINAL: The Wizard of Oz
AÑO: 1939
DURACIÓN: 101 min.
PAÍS: USA
DIRECTOR: Victor Fleming
GUIÓN: Noël Langley, Florence Ryerson, Edgar Alan Wolfe (Cuento: Frank L. Baum)
REPARTO: Judy Garland, Frank Morgan, Ray Bolger, Bert Lahr, Jack Haley, Billie Burke, Margaret Hamilton, Charley Grapewin, Clara Blandick
PRODUCTORA: MGM. Productor: Mervyn Le Roy
GÉNERO: Musical. Fantástico | Cine familiar. Cuentos. Película de culto
: http://www.imdb.com/title/tt0032138/






Dorothy, que sueña con viajar "más allá del arco iris", ve su deseo hecho realidad cuando un tornado se la lleva con su perrito al mundo de Oz. Pero la aventura sólo acaba de comenzar: tras ofender a la Malvada Bruja del Oeste (Margaret Hamilton), aconsejada por la Bruja Buena del Norte (Billie Burke), la niña se dirige por el Camino Amarillo hacia la Ciudad Esmeralda, donde vive el todopoderoso Mago de Oz, que puede ayudarla a regresar a Kansas. Durante el viaje, se hace amiga del Espantapájaros (Ray Bolger), el Hombre de Hojalata (Jack Haley) y el León Cobarde (Bert Lahr). El Espantapájaros desea un cerebro, el Hombre de Hojalata quiere un corazón, y el León, el coraje que le falta; convencidos de que el Mago también les puede ayudar a ellos, deciden unirse a Dorothy en su odisea hasta la Ciudad Esmeralda.
























La pelicula NO tiene ninguna marca... solo colocamos el nombre de esta web en las capturas






Código:
General
Format                                   : Matroska
Format version                           : Version 2
File size                                : 3.96 GiB
Duration                                 : 1h 41mn
Overall bit rate                         : 5 568 Kbps
Movie name                               : www.club-hd.com
Encoded date                             : UTC 2013-06-13 21:14:25
Writing application                      : mkvmerge v5.7.0 ('The Whirlwind') built on Jul  8 2012 20:08:51
Writing library                          : libebml v1.2.3 + libmatroska v1.3.0

Video
ID                                       : 1
Format                                   : AVC
Format/Info                              : Advanced Video Codec
Format profile                           : Main@L4.0
Format settings, CABAC                   : Yes
Format settings, ReFrames                : 4 frames
Codec ID                                 : V_MPEG4/ISO/AVC
Duration                                 : 1h 41mn
Bit rate                                 : 4 750 Kbps
Width                                    : 1 480 pixels
Height                                   : 1 080 pixels
Display aspect ratio                     : 1.370
Frame rate mode                          : Constant
Frame rate                               : 23.976 fps
Color space                              : YUV
Chroma subsampling                       : 4:2:0
Bit depth                                : 8 bits
Scan type                                : Progressive
Bits/(Pixel*Frame)                       : 0.124
Stream size                              : 3.29 GiB (83%)
Title                                    : www.club-hd.com
Writing library                          : x264 core 112
Language                                 : English
Default                                  : Yes
Forced                                   : No
Color primaries                          : BT.709
Transfer characteristics                 : BT.709
Matrix coefficients                      : BT.709

Audio #1
ID                                       : 2
Format                                   : AC-3
Format/Info                              : Audio Coding 3
Mode extension                           : CM (complete main)
Format settings, Endianness              : Big
Codec ID                                 : A_AC3
Duration                                 : 1h 41mn
Bit rate mode                            : Constant
Bit rate                                 : 192 Kbps
Channel(s)                               : 1 channel
Channel positions                        : Front: C
Sampling rate                            : 48.0 KHz
Bit depth                                : 16 bits
Compression mode                         : Lossy
Delay relative to video                  : 400ms
Stream size                              : 140 MiB (3%)
Title                                    : www.club-hd.com  >>  Latino
Language                                 : Spanish
Default                                  : Yes
Forced                                   : No

Audio #2
ID                                       : 3
Format                                   : AC-3
Format/Info                              : Audio Coding 3
Mode extension                           : CM (complete main)
Format settings, Endianness              : Big
Codec ID                                 : A_AC3
Duration                                 : 1h 41mn
Bit rate mode                            : Constant
Bit rate                                 : 640 Kbps
Channel(s)                               : 6 channels
Channel positions                        : Front: L C R, Side: L R, LFE
Sampling rate                            : 48.0 KHz
Bit depth                                : 16 bits
Compression mode                         : Lossy
Stream size                              : 466 MiB (11%)
Title                                    : www.club-hd.com  >>  Inglés
Language                                 : English
Default                                  : No
Forced                                   : No

Text
ID                                       : 4
Format                                   : UTF-8
Codec ID                                 : S_TEXT/UTF8
Codec ID/Info                            : UTF-8 Plain Text
Language                                 : Spanish
Default                                  : No
Forced                                   : No

Menu
00:00:00.000                             : en:Chapter 1
00:01:36.096                             : en:Chapter 2
00:01:56.116                             : en:Chapter 3
00:05:49.223                             : en:Chapter 4
00:08:02.398                             : en:Chapter 5
00:10:21.120                             : en:Chapter 6
00:11:02.828                             : en:Chapter 7
00:12:47.767                             : en:Chapter 8
00:15:06.405                             : en:Chapter 9
00:17:01.520                             : en:Chapter 10
00:19:26.790                             : en:Chapter 11
00:22:59.002                             : en:Chapter 12
00:23:43.630                             : en:Chapter 13
00:24:52.991                             : en:Chapter 14
00:27:35.528                             : en:Chapter 15
00:28:03.682                             : en:Chapter 16
00:29:06.745                             : en:Chapter 17
00:31:05.864                             : en:Chapter 18
00:32:43.962                             : en:Chapter 19
00:33:16.995                             : en:Chapter 20
00:34:04.042                             : en:Chapter 21
00:36:34.942                             : en:Chapter 22
00:38:48.826                             : en:Chapter 23
00:39:16.854                             : en:Chapter 24
00:40:29.718                             : en:Chapter 25
00:42:49.567                             : en:Chapter 26
00:45:55.753                             : en:Chapter 27
00:47:00.692                             : en:Chapter 28
00:47:56.874                             : en:Chapter 29
00:49:05.108                             : en:Chapter 30
00:52:09.626                             : en:Chapter 31
00:52:51.459                             : en:Chapter 32
00:53:53.980                             : en:Chapter 33
00:57:20.437                             : en:Chapter 34
00:58:23.833                             : en:Chapter 35
01:00:34.631                             : en:Chapter 36
01:02:14.439                             : en:Chapter 37
01:03:59.335                             : en:Chapter 38
01:08:45.996                             : en:Chapter 39
01:12:45.194                             : en:Chapter 40
01:14:31.467                             : en:Chapter 41
01:16:11.316                             : en:Chapter 42
01:17:25.682                             : en:Chapter 43
01:20:39.835                             : en:Chapter 44
01:23:20.203                             : en:Chapter 45
01:24:51.211                             : en:Chapter 46
01:25:55.441                             : en:Chapter 47
01:26:59.255                             : en:Chapter 48
01:28:23.589                             : en:Chapter 49
01:29:23.649                             : en:Chapter 50
01:33:48.372                             : en:Chapter 51
01:35:51.245                             : en:Chapter 52
01:37:33.430                             : en:Chapter 53
01:38:40.080                             : en:Chapter 54
01:41:23.410                             : en:Chapter 55


CONTRASEÑA




DESCARGAR



Enlaces de Mega y Google Drive solo disponibles para Miembros VIP

Compra tu Membresía VIP y apoya a Club-HD!

ATENCIÓN! Tenemos TODO el material de Club-HD disponible por Mega y Google Drive, enlaces 100% activos y online hasta la fecha

Llévate tus cuentas Mega PRO III gratis con tu membresía VIP!
Todos los posts vivos con links de Mega y Google Drive.
Todo el material de Club-HD desbloqueado y sin publicidad.

Click Aquí para más información.



Para ver este contenido oculto, debes dar click en una de las siguientes reacciones : Like Like, Love Love, Haha Haha, Wow Wow, Sad Sad, Angry Angry



Para ver este contenido oculto, debes dar click en una de las siguientes reacciones : Like Like, Love Love, Haha Haha, Wow Wow, Sad Sad, Angry Angry
 
Última edición por un moderador:

Usuarios Que Están Viendo Este Tema (Total: 1, Miembros: 0, Invitados: 1)

Quién Leyó Este Tema (Total Miembros: 3)

Arriba