• Buenos dias amigos del club. Les queremos avisar que ya recuperamos el acceso a las webs de las Membresías VIP y del Paste. Asi que ya pueden comprar sus membresías y descargar todos los estrenos nuevamente.

The Wolf of Wall Street (2013) 1080p BDRip Dual Latino-Inglés [Subt. Esp] (Comedia. Drama)

Maestro Revolver

Administrador
Registro
9 Ago 2012
Mensajes
3.157
Reacciones (ptje)
55.343


The-Wolf-of-Wall-Street-1080p.jpg





FichaTecnica.jpg


TÍTULO ORIGINAL: The Wolf of Wall Street
AÑO: 2013
DURACIÓN: 179 min.
PAÍS: USA
DIRECTOR: Martin Scorsese
GUIÓN: Terence Winter (Libro: Jordan Belfort)
REPARTO: Leonardo DiCaprio, Jonah Hill, Margot Robbie, Matthew McConaughey, Rob Reiner, Jean Dujardin, Jon Bernthal, Kyle Chandler, Jon Favreau, Ethan Suplee, Katarina Cas, Cristin Milioti, Joanna Lumley, Spike Jonze, Chris Kerson, Shea Whigham, Marcos Antonio Gonzalez, Emily Tremaine, Ashley Blankenship, Madison McKinley
PRODUCTORA: Paramount Pictures / Red Granite Pictures / Appian Way
GÉNERO: Comedia. Drama | Comedia negra. Biográfico. Bolsa & Negocios. Años 80. Drogas
imdb-logo.png
: http://www.imdb.com/title/tt0993846/

PREMIOS: 2013: Premios Oscar: 5 nominaciones, incluyendo mejor película y director
2013: Globos de Oro: Mejor actor de comedia (Dicaprio). Nomin. a mejor película
2013: Premios BAFTA: 4 nominaciones, incluyendo Mejor director
2013: Critics Choice: Mejor actor de comedia (Dicaprio). 6 nominaciones
2013: National Board of Review (NBR): Top 10 y mejor guión adaptado
2013: American Film Institute: Top 10 - Mejores películas del año
2013: Satellite Awards: 5 nominaciones, incluyendo mejor película y director
2013: Sindicato de Guionistas (WGA): Nominada a Mejor guión adaptado





Sinopsis.jpg


Película basada en hechos reales del corredor de bolsa neoyorquino Jordan Belfort (Leonardo DiCaprio). A mediados de los años ochenta, Belfort era un joven honrado que perseguía el sueño americano, pero pronto en la agencia de valores aprendió que lo más importante no era hacer ganar a sus clientes, sino ser ambicioso y ganar una buena comisión. Su enorme éxito y fortuna cuando tenía poco más de veinte años como fundador de una agencia bursátil le valió el mote de “El lobo de Wall Street”. Dinero. Poder. Mujeres. Drogas. Las tentaciones abundaban y el temor a la ley era irrelevante. Jordan y su manada de lobos consideraban que la discreción era una cualidad anticuada; nunca se conformaban con lo que tenían.




Trailer.jpg






Capturas.jpg


1.jpg


2.jpg


3.jpg


4.jpg


5.jpg


6.jpg


La pelicula NO tiene ninguna marca... solo colocamos el nombre de esta web en las capturas




MediaInfo.jpg


Código:
General
Format                                   : Matroska
Format version                           : Version 2
File size                                : 13.6 GiB
Duration                                 : 2h 59mn
Overall bit rate                         : 10.8 Mbps
Movie name                               : www.club-hd.com
Encoded date                             : UTC 2014-03-15 13:21:56
Writing application                      : mkvmerge v5.7.0 ('The Whirlwind') built on Jul  8 2012 20:08:51
Writing library                          : libebml v1.2.3 + libmatroska v1.3.0

Video
ID                                       : 1
Format                                   : AVC
Format/Info                              : Advanced Video Codec
Format profile                           : [email protected]
Format settings, CABAC                   : Yes
Format settings, ReFrames                : 5 frames
Muxing mode                              : Header stripping
Codec ID                                 : V_MPEG4/ISO/AVC
Duration                                 : 2h 59mn
Bit rate                                 : 8 060 Kbps
Width                                    : 1 920 pixels
Height                                   : 800 pixels
Display aspect ratio                     : 2.40:1
Frame rate mode                          : Constant
Frame rate                               : 23.976 fps
Color space                              : YUV
Chroma subsampling                       : 4:2:0
Bit depth                                : 8 bits
Scan type                                : Progressive
Bits/(Pixel*Frame)                       : 0.219
Stream size                              : 9.85 GiB (72%)
Title                                    : www.club-hd.com
Writing library                          : x264 core 142 r2389 956c8d8
Language                                 : English
Default                                  : Yes
Forced                                   : No

Audio #1
ID                                       : 2
Format                                   : AC-3
Format/Info                              : Audio Coding 3
Mode extension                           : CM (complete main)
Format settings, Endianness              : Big
Muxing mode                              : Header stripping
Codec ID                                 : A_AC3
Duration                                 : 2h 59mn
Bit rate mode                            : Constant
Bit rate                                 : 640 Kbps
Channel(s)                               : 6 channels
Channel positions                        : Front: L C R, Side: L R, LFE
Sampling rate                            : 48.0 KHz
Bit depth                                : 16 bits
Compression mode                         : Lossy
Stream size                              : 823 MiB (6%)
Title                                    : www.club-hd.com  >>  Latino AC3 5.1
Language                                 : Spanish
Default                                  : Yes
Forced                                   : No

Audio #2
ID                                       : 3
Format                                   : AC-3
Format/Info                              : Audio Coding 3
Mode extension                           : CM (complete main)
Format settings, Endianness              : Big
Muxing mode                              : Header stripping
Codec ID                                 : A_AC3
Duration                                 : 2h 59mn
Bit rate mode                            : Constant
Bit rate                                 : 640 Kbps
Channel(s)                               : 6 channels
Channel positions                        : Front: L C R, Side: L R, LFE
Sampling rate                            : 48.0 KHz
Bit depth                                : 16 bits
Compression mode                         : Lossy
Stream size                              : 823 MiB (6%)
Title                                    : www.club-hd.com  >>  Inglés AC3 5.1
Language                                 : English
Default                                  : No
Forced                                   : No

Audio #3
ID                                       : 4
Format                                   : DTS
Format/Info                              : Digital Theater Systems
Mode                                     : 16
Format settings, Endianness              : Big
Muxing mode                              : Header stripping
Codec ID                                 : A_DTS
Duration                                 : 2h 59mn
Bit rate mode                            : Constant
Bit rate                                 : 1 509 Kbps
Channel(s)                               : 6 channels
Channel positions                        : Front: L C R, Side: L R, LFE
Sampling rate                            : 48.0 KHz
Bit depth                                : 24 bits
Compression mode                         : Lossy
Stream size                              : 1.90 GiB (14%)
Title                                    : www.club-hd.com  >>  Inglés DTS 5.1
Language                                 : English
Default                                  : No
Forced                                   : No

Text
ID                                       : 5
Format                                   : UTF-8
Codec ID                                 : S_TEXT/UTF8
Codec ID/Info                            : UTF-8 Plain Text
Language                                 : Spanish
Default                                  : No
Forced                                   : No

Menu
00:00:00.000                             : en:00:00:00.000
00:07:55.934                             : en:00:07:55.934
00:14:17.857                             : en:00:14:17.857
00:21:31.415                             : en:00:21:31.415
00:32:08.093                             : en:00:32:08.093
00:40:14.495                             : en:00:40:14.495
00:48:33.577                             : en:00:48:33.577
00:55:21.777                             : en:00:55:21.777
01:01:56.046                             : en:01:01:56.046
01:07:00.475                             : en:01:07:00.475
01:11:28.910                             : en:01:11:28.910
01:19:49.868                             : en:01:19:49.868
01:29:06.883                             : en:01:29:06.883
01:37:47.403                             : en:01:37:47.403
01:45:11.931                             : en:01:45:11.931
01:54:39.998                             : en:01:54:39.998
02:03:20.184                             : en:02:03:20.184
02:07:28.015                             : en:02:07:28.015
02:17:12.850                             : en:02:17:12.850
02:25:25.467                             : en:02:25:25.467
02:32:08.619                             : en:02:32:08.619
02:36:38.723                             : en:02:36:38.723
02:44:19.266                             : en:02:44:19.266
02:53:04.291                             : en:02:53:04.291




Descarga.jpg



MEGA.jpg

Tenemos TODO el material de Club-HD disponible por Mega, enlaces 100% activos y online hasta la fecha

Llévate tus cuentas Mega PRO III gratis con tu membresía VIP!
Todos los posts vivos con links de Mega.
Todo el material de Club-HD desbloqueado y sin publicidad.

Obtén más información sobre nuestras Membresías VIP



UPLOADED_BANNER.png

Para ver este contenido oculto, debes dar click en el botón"Like", o cualquiera de las otras reacciones:

Me Gusta Me Gusta, Me Encanta Me Encanta, Jaja Jaja, Wow Wow, Triste Triste, Molesto Molesto
 
Última edición por un moderador:
muchas gracias por el aporte ! La estaba esperando hace tiempo
 
Desc_g_

Excelente Master!!! :OHHH:

Estrenazo acaba de subir, la estaba esperando!!!

Dura 3 horas pero me dijeron que esta buenísima, que te hace mucho reír, a ver que tal, espero que esas 3 horas no sean demasiado :p

Gracias!!!

Saludos :D
 
graciaaaaaaaaaaaaaaaaaaaaaaaaaaaaaaaaaaaaaaaaaaaaaaaaaaaaaaaaaaaaaaaaaaaaaaaaaaaaaaaaaaaaaaaaaaaaaaaaaaaaaaaaaaaaaaaaaaaaaaaaaaaaaaaaaaaaaaaaaaaaaaaaaaaaaaaaaaaaaaaaaaaaaaaaaaaasssssssssssssssssssssssssssssssssssssssssssssssssssssssssssssssssssssssssssssssssssssssssssssssssssssssssssssssssssssssssssssssssssssssssssssssssssssssssssssssssssssssssssssssssssssssssssss!!!!!!!!!!!!!!!!!!!!!!!!!!!!!!!!!!!!!!!!!!!!!!!!!!!!!!!!!!!!!!!!!!!!!!!!!!!!!!!!!!!!!!!!!!!!!!!!!!!!!!!!!
 
Volver