The Wolverine (2013) EXTENDED 1080p BDRip Dual Latino-Inglés [Subt. Esp] (Fantástico. Ciencia ficción. Acción)

Maestro Revolver

Administrador
Registro
9 Ago 2012
Mensajes
3.157
Reacciones (ptje)
55.161


The-Wolverine-1080p.jpg




FichaTecnica.jpg


TÍTULO ORIGINAL: The Wolverine (X-Men Origins: Wolverine 2)
AÑO: 2013
DURACIÓN: 126 min.
PAÍS: USA
DIRECTOR: James Mangold
GUIÓN: Scott Frank, Mark Bomback (Cómic: Frank Miller, Chris Claremont)
REPARTO: Hugh Jackman, Tao Okamoto, Rila Fukushima, Hiroyuki Sanada, Famke Janssen, Brian Tee, Svetlana Khodchenkova, Hal Yamanouchi, Will Yun Lee, Ken Yamamura, Shinji Ikefuji, Conrad Coleby, Taris Tyler, Kimi, Louis Toshio Okada, Hiroshi Kasuga
PRODUCTORA: Twentieth Century Fox Film Corporation / Marvel Entertainment / Dune Entertainment
GÉNERO: Fantástico. Ciencia ficción. Acción | Superhéroes. Cómic. Marvel Comics. Spin-off. Secuela. Samuráis. Ninjas
imdb-logo.png
: http://www.imdb.com/title/tt1430132/




Sinopsis.jpg


Un Logan amnésico busca respuestas sobre su pasado en el mundo del crimen organizado de Japón. Vulnerable por primera vez y desafiando sus límites físicos y emocionales, no sólo se enfrentará al letal acero samurái, también se verá en una lucha interna contra su propia inmortalidad que le volverá más fuerte.




Trailer.jpg






Capturas.jpg


1.jpg


2.jpg


3.jpg


4.jpg


5.jpg


6.jpg


La pelicula NO tiene ninguna marca... solo colocamos el nombre de esta web en las capturas




MediaInfo.jpg


Código:
General
Format                                   : Matroska
Format version                           : Version 2
File size                                : 10.9 GiB
Duration                                 : 2h 18mn
Overall bit rate                         : 11.3 Mbps
Movie name                               : www.club-hd.com
Encoded date                             : UTC 2013-11-08 14:00:38
Writing application                      : mkvmerge v5.7.0 ('The Whirlwind') built on Jul  8 2012 20:08:51
Writing library                          : libebml v1.2.3 + libmatroska v1.3.0

Video
ID                                       : 1
Format                                   : AVC
Format/Info                              : Advanced Video Codec
Format profile                           : [email protected]
Format settings, CABAC                   : Yes
Format settings, ReFrames                : 5 frames
Codec ID                                 : V_MPEG4/ISO/AVC
Duration                                 : 2h 18mn
Bit rate                                 : 8 676 Kbps
Width                                    : 1 920 pixels
Height                                   : 800 pixels
Display aspect ratio                     : 2.40:1
Frame rate mode                          : Constant
Frame rate                               : 23.976 fps
Color space                              : YUV
Chroma subsampling                       : 4:2:0
Bit depth                                : 8 bits
Scan type                                : Progressive
Bits/(Pixel*Frame)                       : 0.236
Stream size                              : 8.16 GiB (75%)
Title                                    : www.club-hd.com
Writing library                          : x264 core 140 r2377 1ca7bb9
Language                                 : English
Default                                  : Yes
Forced                                   : No

Audio #1
ID                                       : 2
Format                                   : AC-3
Format/Info                              : Audio Coding 3
Mode extension                           : CM (complete main)
Format settings, Endianness              : Big
Codec ID                                 : A_AC3
Duration                                 : 2h 18mn
Bit rate mode                            : Constant
Bit rate                                 : 448 Kbps
Channel(s)                               : 6 channels
Channel positions                        : Front: L C R, Side: L R, LFE
Sampling rate                            : 48.0 KHz
Bit depth                                : 16 bits
Compression mode                         : Lossy
Stream size                              : 443 MiB (4%)
Title                                    : www.club-hd.com  >>  Latino AC3 5.1
Language                                 : Spanish
Default                                  : Yes
Forced                                   : No

Audio #2
ID                                       : 3
Format                                   : AC-3
Format/Info                              : Audio Coding 3
Mode extension                           : CM (complete main)
Format settings, Endianness              : Big
Codec ID                                 : A_AC3
Duration                                 : 2h 18mn
Bit rate mode                            : Constant
Bit rate                                 : 640 Kbps
Channel(s)                               : 6 channels
Channel positions                        : Front: L C R, Side: L R, LFE
Sampling rate                            : 48.0 KHz
Bit depth                                : 16 bits
Compression mode                         : Lossy
Stream size                              : 633 MiB (6%)
Title                                    : www.club-hd.com  >>  Inglés AC3 5.1
Language                                 : English
Default                                  : No
Forced                                   : No

Audio #3
ID                                       : 4
Format                                   : DTS
Format/Info                              : Digital Theater Systems
Format profile                           : ES
Mode                                     : 16
Format settings, Endianness              : Big
Codec ID                                 : A_DTS
Duration                                 : 2h 18mn
Bit rate mode                            : Constant
Bit rate                                 : 1 509 Kbps
Channel(s)                               : 6 channels
Channel positions                        : Front: L C R, Side: L R, LFE
Sampling rate                            : 48.0 KHz
Bit depth                                : 24 bits
Compression mode                         : Lossy
Stream size                              : 1.46 GiB (13%)
Title                                    : www.club-hd.com  >>  Inglés DTS 5.1
Language                                 : English
Default                                  : No
Forced                                   : No

Text #1
ID                                       : 5
Format                                   : UTF-8
Codec ID                                 : S_TEXT/UTF8
Codec ID/Info                            : UTF-8 Plain Text
Title                                    : Forzados
Language                                 : Spanish
Default                                  : Yes
Forced                                   : No

Text #2
ID                                       : 6
Format                                   : UTF-8
Codec ID                                 : S_TEXT/UTF8
Codec ID/Info                            : UTF-8 Plain Text
Title                                    : Completos
Language                                 : Spanish
Default                                  : No
Forced                                   : No

Menu
00:00:00.000                             : en:00:00:00.000
00:05:03.720                             : en:00:05:03.720
00:07:39.793                             : en:00:07:39.793
00:08:40.562                             : en:00:08:40.562
00:10:24.374                             : en:00:10:24.374
00:13:55.668                             : en:00:13:55.668
00:16:48.174                             : en:00:16:48.174
00:20:32.648                             : en:00:20:32.648
00:23:36.498                             : en:00:23:36.498
00:29:13.585                             : en:00:29:13.585
00:33:42.771                             : en:00:33:42.771
00:35:14.779                             : en:00:35:14.779
00:38:36.522                             : en:00:38:36.522
00:43:04.957                             : en:00:43:04.957
00:47:55.080                             : en:00:47:55.080
00:49:31.844                             : en:00:49:31.844
00:52:23.098                             : en:00:52:23.098
00:59:32.318                             : en:00:59:32.318
01:01:31.354                             : en:01:01:31.354
01:07:00.516                             : en:01:07:00.516
01:13:10.261                             : en:01:13:10.261
01:18:52.227                             : en:01:18:52.227
01:23:40.473                             : en:01:23:40.473
01:26:47.160                             : en:01:26:47.160
01:29:50.927                             : en:01:29:50.927
01:35:19.380                             : en:01:35:19.380
01:38:28.194                             : en:01:38:28.194
01:41:43.639                             : en:01:41:43.639
01:48:33.006                             : en:01:48:33.006
01:52:05.969                             : en:01:52:05.969
01:54:56.264                             : en:01:54:56.264
01:58:03.493                             : en:01:58:03.493
02:03:01.999                             : en:02:03:01.999
02:04:57.406                             : en:02:04:57.406
02:07:46.700                             : en:02:07:46.700
02:09:17.374                             : en:02:09:17.374




Descarga.jpg



MEGA-BANNER.png

Tenemos TODO el material de Club-HD disponible por Mega, enlaces 100% activos y online hasta la fecha

Llévate tus cuentas Mega PRO III gratis con tu membresía VIP!
Todos los posts vivos con links de Mega.
Todo el material de Club-HD desbloqueado y sin publicidad.

Obtén más información sobre nuestras Membresías VIP


1FICHIER-BANNER.png


Tenemos TODO el material de Club-HD disponible por Mega, enlaces 100% activos y online hasta la fecha

Llévate tus cuentas Mega PRO III gratis con tu membresía VIP!
Todos los posts vivos con links de Mega.
Todo el material de Club-HD desbloqueado y sin publicidad.

Obtén más información sobre nuestras Membresías VIP


UPLOADED_BANNER.png


Para ver este contenido oculto, debes dar click en el botón"Like", o cualquiera de las otras reacciones:

Me Gusta Me Gusta, Me Encanta Me Encanta, Jaja Jaja, Wow Wow, Triste Triste, Molesto Molesto


OPENLOAD.png


Para ver este contenido oculto, debes dar click en el botón"Like", o cualquiera de las otras reacciones:

Me Gusta Me Gusta, Me Encanta Me Encanta, Jaja Jaja, Wow Wow, Triste Triste, Molesto Molesto

 
Última edición por un moderador:
Re: The Wolverine (2013) 1080p BDRip Dual Latino-Inglés [Subt. Esp] (Fantástico. Ciencia ficción. Acción)

Excelente estreno, muchas gracias, esperando la 720p.
 
Re: The Wolverine (2013) 1080p BDRip Dual Latino-Inglés [Subt. Esp] (Fantástico. Ciencia ficción. Acción)

Ohhh Dios siento q los amo q muucho los extrane
 
Re: The Wolverine (2013) 1080p BDRip Dual Latino-Inglés [Subt. Esp] (Fantástico. Ciencia ficción. Acción)

:OHHH: Muy buena esta película, con decir que mis padres no son de ver ciencia ficción pero esta si les gusto xD gracias Revolver22 Desc_g_
 
Re: The Wolverine (2013) 1080p BDRip Dual Latino-Inglés [Subt. Esp] (Fantástico. Ciencia ficción. Acción)

que bueno que esten de regreso se les estrañava gracias por la peli
 
Re: The Wolverine (2013) 1080p BDRip Dual Latino-Inglés [Subt. Esp] (Fantástico. Ciencia ficción. Acción)

gracias!!!
 
Re: The Wolverine (2013) 1080p BDRip Dual Latino-Inglés [Subt. Esp] (Fantástico. Ciencia ficción. Acción)

gracias
 
Re: The Wolverine (2013) 1080p BDRip Dual Latino-Inglés [Subt. Esp] (Fantástico. Ciencia ficción. Acción)

exelente aporte Desc_g_:thank-you:
 
Re: The Wolverine (2013) 1080p BDRip Dual Latino-Inglés [Subt. Esp] (Fantástico. Ciencia ficción. Acción)

Excelente, muchas gracias por el estreno, lo estaba esperando.
 
Re: The Wolverine (2013) 1080p BDRip Dual Latino-Inglés [Subt. Esp] (Fantástico. Ciencia ficción. Acción)

Super Super, a esperar la version 720p. Gracias Master sin duda se te extrañaba como al Club HD. Lo maximo :LXR: :LXR:
 
Re: The Wolverine (2013) 1080p BDRip Dual Latino-Inglés [Subt. Esp] (Fantástico. Ciencia ficción. Acción)

weeeeeeeeeeeeeeenisima bajando
 
otro pelicula que no puede ver y por fin la vere muchas gracias revo max y todos los demas que el club vuelve a estar en linea despues de tanto que igual si se empieza de 0 nuevamente igual seguiría aqui !
 
Volver