The Zone of Interest (2023) 2160p HDR AMZN WEB-DL Latino-Inglés [Subt.Esp] (Drama. Holocausto)

LuchoO

責任者

Moderador
Uploader
Registro
15 Ago 2015
Mensajes
1.833
Reacciones (ptje)
27.592

cover.png


FICHA.TECNICA.png

Captura.JPG

SINOPSIS.PNG


El comandante de Auschwitz Rudolf Höss y su esposa Hedwig se esfuerzan en construir una vida de ensueño para su familia en una casa con jardín cerca del campo.
Premios
2023: Premios Oscar: Mejor película extranjera y mejor sonido. 5 nominaciones
2023: Festival de Cannes: Gran Premio del Jurado
2023: Asociación de Críticos de Los Angeles: Mejor película, dirección, actriz y bso
2023: Premios Globos de Oro: 3 nominaciones
2023: Premios BAFTA (Reino Unido): 3 premios. 9 nominaciones
2023: Premios del Cine Europeo (EFA): Mejor sonido. 6 nominaciones


7.5



TRAILER.PNG



CAPTURAS.PNG


TZOI.0001.jpeg


TZOI.0002.jpeg


TZOI.0003.jpeg


TZOI.0004.jpeg



MEDIAINFO.PNG

General
Complete name : The Zone of Interest 2023 HDR AMZN WEB-DL 2160p H.265 Dual.mkv
Format : Matroska
Format version : Version 4
File size : 11.1 GiB
Duration : 1 h 45 min
Overall bit rate : 15.2 Mb/s
Frame rate : 23.976 FPS
Movie name : [Club-HD] The Zone of Interest 2023 AMZN WEB-DL 2160p H.265 HDR Dual.mkv
Encoded date : 2024-04-01 15:55:14 UTC
Writing application : mkvmerge v77.0 ('Elemental') 64-bit
Writing library : libebml v1.4.4 + libmatroska v1.7.1

Video
ID : 1
Format : HEVC
Format/Info : High Efficiency Video Coding
Format profile : Main 10@L5@Main
HDR format : SMPTE ST 2094 App 4, Version 1, HDR10+ Profile B compatible
Codec ID : V_MPEGH/ISO/HEVC
Duration : 1 h 44 min
Bit rate : 13.8 Mb/s
Width : 3 840 pixels
Height : 2 160 pixels
Display aspect ratio : 16:9
Frame rate mode : Constant
Frame rate : 23.976 (24000/1001) FPS
Color space : YUV
Chroma subsampling : 4:2:0
Bit depth : 10 bits
Bits/(Pixel*Frame) : 0.069
Stream size : 10.1 GiB (91%)
Language : German (DE)
Default : Yes
Forced : No
Color range : Limited
Color primaries : BT.2020
Transfer characteristics : PQ
Matrix coefficients : BT.2020 non-constant
Mastering display color primaries : Display P3
Mastering display luminance : min: 0.0001 cd/m2, max: 1000 cd/m2
Maximum Content Light Level : 233 cd/m2
Maximum Frame-Average Light Level : 204 cd/m2

Audio #1
ID : 2
Format : E-AC-3
Format/Info : Enhanced AC-3
Commercial name : Dolby Digital Plus
Codec ID : A_EAC3
Duration : 1 h 45 min
Bit rate mode : Constant
Bit rate : 640 kb/s
Channel(s) : 6 channels
Channel layout : L R C LFE Ls Rs
Sampling rate : 48.0 kHz
Frame rate : 31.250 FPS (1536 SPF)
Compression mode : Lossy
Stream size : 481 MiB (4%)
Language : Spanish (Latin America)
Service kind : Complete Main
Default : Yes
Forced : No

Audio #2
ID : 3
Format : E-AC-3 JOC
Format/Info : Enhanced AC-3 with Joint Object Coding
Commercial name : Dolby Digital Plus with Dolby Atmos
Codec ID : A_EAC3
Duration : 1 h 44 min
Bit rate mode : Constant
Bit rate : 768 kb/s
Channel(s) : 6 channels
Channel layout : L R C LFE Ls Rs
Sampling rate : 48.0 kHz
Frame rate : 31.250 FPS (1536 SPF)
Compression mode : Lossy
Delay relative to video : 28 ms
Stream size : 575 MiB (5%)
Language : German
Service kind : Complete Main
Default : No
Forced : No
Complexity index : 16
Number of dynamic objects : 15
Bed channel count : 1 channel
Bed channel configuration : LFE

Text #1
ID : 4
Format : UTF-8
Codec ID : S_TEXT/UTF8
Codec ID/Info : UTF-8 Plain Text
Duration : 1 min 40 s
Bit rate : 23 b/s
Frame rate : 0.160 FPS
Count of elements : 16
Stream size : 295 Bytes (0%)
Title : Forced
Language : Spanish (Latin America)
Default : Yes
Forced : Yes

Text #2
ID : 5
Format : UTF-8
Codec ID : S_TEXT/UTF8
Codec ID/Info : UTF-8 Plain Text
Duration : 1 h 31 min
Bit rate : 35 b/s
Frame rate : 0.137 FPS
Count of elements : 752
Stream size : 23.9 KiB (0%)
Language : Spanish (Latin America)
Default : No
Forced : No

Text #3
ID : 6
Format : UTF-8
Codec ID : S_TEXT/UTF8
Codec ID/Info : UTF-8 Plain Text
Duration : 1 h 43 min
Bit rate : 39 b/s
Frame rate : 0.161 FPS
Count of elements : 1001
Stream size : 30.0 KiB (0%)
Title : SDH
Language : Spanish (Latin America)
Default : No
Forced : No

Text #4
ID : 7
Format : UTF-8
Codec ID : S_TEXT/UTF8
Codec ID/Info : UTF-8 Plain Text
Duration : 1 min 39 s
Bit rate : 23 b/s
Frame rate : 0.161 FPS
Count of elements : 16
Stream size : 292 Bytes (0%)
Title : Forced
Language : Portuguese
Default : No
Forced : No

Text #5
ID : 8
Format : UTF-8
Codec ID : S_TEXT/UTF8
Codec ID/Info : UTF-8 Plain Text
Duration : 1 h 43 min
Bit rate : 31 b/s
Frame rate : 0.123 FPS
Count of elements : 766
Stream size : 23.9 KiB (0%)
Language : Portuguese
Default : No
Forced : No

Text #6
ID : 9
Format : UTF-8
Codec ID : S_TEXT/UTF8
Codec ID/Info : UTF-8 Plain Text
Duration : 1 h 43 min
Bit rate : 38 b/s
Frame rate : 0.140 FPS
Count of elements : 871
Stream size : 29.6 KiB (0%)
Title : SDH
Language : Portuguese
Default : No
Forced : No

Text #7
ID : 10
Format : UTF-8
Codec ID : S_TEXT/UTF8
Codec ID/Info : UTF-8 Plain Text
Duration : 1 h 11 min
Bit rate : 0 b/s
Frame rate : 0.004 FPS
Count of elements : 17
Stream size : 146 Bytes (0%)
Language : English (US)
Default : No
Forced : No

Text #8
ID : 11
Format : UTF-8
Codec ID : S_TEXT/UTF8
Codec ID/Info : UTF-8 Plain Text
Duration : 1 h 43 min
Bit rate : 10 b/s
Frame rate : 0.064 FPS
Count of elements : 397
Stream size : 7.77 KiB (0%)
Title : SDH
Language : English (US)
Default : No
Forced : No

Menu
00:00:00.000 : en:Chapter 01
00:10:59.242 : en:Chapter 02
00:22:29.140 : en:Chapter 03
00:34:39.996 : en:Chapter 04
00:45:23.765 : en:Chapter 05
00:55:53.395 : en:Chapter 06
01:07:34.679 : en:Chapter 07
01:17:23.727 : en:Chapter 08
01:27:58.403 : en:Chapter 09
01:38:59.939 : en:Chapter 10


DESCARGA.PNG




⭐ 1 LINK MKV VIP ⭐

Mega.png

Tenemos TODO el material de Club-HD disponible por Mega, enlaces 100% activos y online hasta la fecha

Llévate tus cuentas Mega PRO III gratis con tu membresía VIP!
Todos los posts vivos con links de Mega.
Todo el material de Club-HD desbloqueado y sin publicidad.

Obtén más información sobre nuestras Membresías VIP


LINKS FREE PÚBLICOS

Fireload.png


¡Click aquí para descargar desde Fireload!


1cloudfile.png


¡Click aquí para descargar desde 1cloudfile!

 
Última edición por un moderador:
Volver