This Is the End (2013) 1080p BDRip Dual Latino-Inglés [Subt. Esp] (Comedia)

Maestro Revolver

Administrador
Registro
9 Ago 2012
Mensajes
3.157
Reacciones (ptje)
55.034


This-is-the-End-1080p.jpg




FichaTecnica.jpg


TÍTULO ORIGINAL: This Is the End
AÑO: 2013
DURACIÓN: 107 min.
PAÍS: USA
DIRECTOR: Evan Goldberg, Seth Rogen
GUIÓN: Seth Rogen, Evan Goldberg (Relato: Evan Goldberg, Jason Stone)
REPARTO: Seth Rogen, Jay Baruchel, James Franco, Jonah Hill, Danny McBride, Craig Robinson, Emma Watson, Michael Cera, Christopher Mintz-Plasse, Jason Segel, Rihanna, Channing Tatum
PRODUCTORA: Columbia Pictures / Mandate Pictures / Sony Pictures Entertainment (SPE)
GÉNERO: Comedia | Fin del mundo
imdb-logo.png
: http://www.imdb.com/title/tt1245492/




Sinopsis.jpg


Durante una fiesta celebrada en Los Angeles con motivo de la inauguración de la nueva casa de James Franco, los también actores Seth Rogen, Jay Baruchel y otras celebridades se enfrentan al Apocalipsis del fin del mundo pronosticado por los mayas.




Trailer.jpg






Capturas.jpg


1.jpg


2.jpg


3.jpg


4.jpg


5.jpg


6.jpg


La pelicula NO tiene ninguna marca... solo colocamos el nombre de esta web en las capturas




MediaInfo.jpg


Código:
General
Format                                   : Matroska
Format version                           : Version 2
File size                                : 8.32 GiB
Duration                                 : 1h 46mn
Overall bit rate                         : 11.2 Mbps
Movie name                               : www.club-hd.com
Encoded date                             : UTC 2013-10-06 15:15:27
Writing application                      : mkvmerge v5.7.0 ('The Whirlwind') built on Jul  8 2012 20:08:51
Writing library                          : libebml v1.2.3 + libmatroska v1.3.0

Video
ID                                       : 1
Format                                   : AVC
Format/Info                              : Advanced Video Codec
Format profile                           : [email protected]
Format settings, CABAC                   : Yes
Format settings, ReFrames                : 5 frames
Codec ID                                 : V_MPEG4/ISO/AVC
Duration                                 : 1h 46mn
Bit rate                                 : 8 754 Kbps
Width                                    : 1 920 pixels
Height                                   : 808 pixels
Display aspect ratio                     : 2.40:1
Frame rate mode                          : Constant
Frame rate                               : 23.976 fps
Color space                              : YUV
Chroma subsampling                       : 4:2:0
Bit depth                                : 8 bits
Scan type                                : Progressive
Bits/(Pixel*Frame)                       : 0.235
Stream size                              : 6.36 GiB (76%)
Title                                    : www.club-hd.com
Writing library                          : x264 core 133 r2334 a3ac64b
Language                                 : English
Default                                  : Yes
Forced                                   : No

Audio #1
ID                                       : 2
Format                                   : AC-3
Format/Info                              : Audio Coding 3
Mode extension                           : CM (complete main)
Format settings, Endianness              : Big
Codec ID                                 : A_AC3
Duration                                 : 1h 46mn
Bit rate mode                            : Constant
Bit rate                                 : 256 Kbps
Channel(s)                               : 2 channels
Channel positions                        : Front: L R
Sampling rate                            : 48.0 KHz
Bit depth                                : 16 bits
Compression mode                         : Lossy
Stream size                              : 195 MiB (2%)
Title                                    : www.club-hd.com  >>  Latino AC3 2.0
Language                                 : Spanish
Default                                  : Yes
Forced                                   : No

Audio #2
ID                                       : 3
Format                                   : AC-3
Format/Info                              : Audio Coding 3
Mode extension                           : CM (complete main)
Format settings, Endianness              : Big
Codec ID                                 : A_AC3
Duration                                 : 1h 46mn
Bit rate mode                            : Constant
Bit rate                                 : 640 Kbps
Channel(s)                               : 6 channels
Channel positions                        : Front: L C R, Side: L R, LFE
Sampling rate                            : 48.0 KHz
Bit depth                                : 16 bits
Compression mode                         : Lossy
Stream size                              : 488 MiB (6%)
Title                                    : www.club-hd.com  >>  Inglés AC3 5.1
Language                                 : English
Default                                  : No
Forced                                   : No

Audio #3
ID                                       : 4
Format                                   : DTS
Format/Info                              : Digital Theater Systems
Mode                                     : 16
Format settings, Endianness              : Big
Codec ID                                 : A_DTS
Duration                                 : 1h 46mn
Bit rate mode                            : Constant
Bit rate                                 : 1 509 Kbps
Channel(s)                               : 6 channels
Channel positions                        : Front: L C R, Side: L R, LFE
Sampling rate                            : 48.0 KHz
Bit depth                                : 24 bits
Compression mode                         : Lossy
Stream size                              : 1.12 GiB (14%)
Title                                    : www.club-hd.com  >>  Inglés DTS 5.1
Language                                 : English
Default                                  : No
Forced                                   : No

Text
ID                                       : 5
Format                                   : UTF-8
Codec ID                                 : S_TEXT/UTF8
Codec ID/Info                            : UTF-8 Plain Text
Language                                 : Spanish
Default                                  : No
Forced                                   : No

Menu
00:00:00.000                             : en:00:00:00.000
00:05:50.392                             : en:00:05:50.392
00:12:12.732                             : en:00:12:12.732
00:17:37.598                             : en:00:17:37.598
00:23:49.011                             : en:00:23:49.011
00:29:23.637                             : en:00:29:23.637
00:38:27.847                             : en:00:38:27.847
00:44:36.716                             : en:00:44:36.716
00:49:16.328                             : en:00:49:16.328
00:59:15.594                             : en:00:59:15.594
01:06:03.001                             : en:01:06:03.001
01:12:45.319                             : en:01:12:45.319
01:19:24.969                             : en:01:19:24.969
01:26:21.343                             : en:01:26:21.343
01:33:17.967                             : en:01:33:17.967
01:37:41.773                             : en:01:37:41.773




Descarga.jpg



MEGA.jpg

Tenemos TODO el material de Club-HD disponible por Mega, enlaces 100% activos y online hasta la fecha

Llévate tus cuentas Mega PRO III gratis con tu membresía VIP!
Todos los posts vivos con links de Mega.
Todo el material de Club-HD desbloqueado y sin publicidad.

Obtén más información sobre nuestras Membresías VIP


UPLOADED_BANNER.png

Para ver este contenido oculto, debes dar click en el botón"Like", o cualquiera de las otras reacciones:

Me Gusta Me Gusta, Me Encanta Me Encanta, Jaja Jaja, Wow Wow, Triste Triste, Molesto Molesto



 
Última edición por un moderador:
Volver