Thor: The Dark World (2013) 1080p BDRip Dual Latino-Inglés [Subt. Esp] (Fantástico. Acción. Aventura)

Maestro Revolver

Administrador
Registro
9 Ago 2012
Mensajes
3.157
Reacciones (ptje)
54.925

Thor2.jpg





FichaTecnica.jpg


TÍTULO ORIGINAL: Thor: The Dark World (Thor 2)
AÑO: 2013
DURACIÓN: 112 min.
PAÍS: USA
DIRECTOR: Alan Taylor
GUIÓN: Alan Taylor
REPARTO: Chris Hemsworth, Natalie Portman, Anthony Hopkins, Tom Hiddleston, Christopher Eccleston, Idris Elba, Kat Dennings, Adewale Akinnuoye-Agbaje, Jaimie Alexander, Tadanobu Asano, Stellan Skarsgård, Ray Stevenson, Alice Krige, Zachary Levi, Chris O'Dowd, Stan Lee
PRODUCTORA: Marvel Entertainment / Marvel Studios
GÉNERO: Fantástico. Acción. Aventuras | Mitología. Superhéroes. Cómic. Marvel Comics. Secuela. 3-D
imdb-logo.png
: http://www.imdb.com/title/tt1981115/




Sinopsis.jpg


En "Thor: El mundo oscuro", Thor lucha por restablecer el orden en todo el cosmos… pero una antigua raza liderada por el vengativo Malekith regresa para volver a sumir al universo en la oscuridad. Thor se enfrenta a un enemigo al que ni siquiera Odín y Asgard pueden hacer frente, y deberá embarcarse en su viaje más peligroso a la vez que personal. En este viaje se reunirá con Jane Foster y le obligará a sacrificarlo todo para salvar el mundo.




Trailer.jpg






Capturas.jpg


1.jpg


2.jpg


3.jpg


4.jpg


5.jpg


6.jpg


La pelicula NO tiene ninguna marca... solo colocamos el nombre de esta web en las capturas




MediaInfo.jpg


Código:
General
Format                                   : Matroska
Format version                           : Version 2
File size                                : 8.65 GiB
Duration                                 : 1h 52mn
Overall bit rate                         : 11.1 Mbps
Movie name                               : www.club-hd.com
Encoded date                             : UTC 2014-02-06 21:55:24
Writing application                      : mkvmerge v5.7.0 ('The Whirlwind') built on Jul  8 2012 20:08:51
Writing library                          : libebml v1.2.3 + libmatroska v1.3.0

Video
ID                                       : 1
Format                                   : AVC
Format/Info                              : Advanced Video Codec
Format profile                           : [email protected]
Format settings, CABAC                   : Yes
Format settings, ReFrames                : 5 frames
Muxing mode                              : Header stripping
Codec ID                                 : V_MPEG4/ISO/AVC
Duration                                 : 1h 52mn
Bit rate                                 : 8 263 Kbps
Width                                    : 1 920 pixels
Height                                   : 800 pixels
Display aspect ratio                     : 2.40:1
Frame rate mode                          : Constant
Frame rate                               : 23.976 fps
Color space                              : YUV
Chroma subsampling                       : 4:2:0
Bit depth                                : 8 bits
Scan type                                : Progressive
Bits/(Pixel*Frame)                       : 0.224
Stream size                              : 6.29 GiB (73%)
Title                                    : www.club-hd.com
Writing library                          : x264 core 140 r2377 1ca7bb9
Language                                 : English
Default                                  : Yes
Forced                                   : No

Audio #1
ID                                       : 2
Format                                   : AC-3
Format/Info                              : Audio Coding 3
Mode extension                           : CM (complete main)
Format settings, Endianness              : Big
Muxing mode                              : Header stripping
Codec ID                                 : A_AC3
Duration                                 : 1h 52mn
Bit rate mode                            : Constant
Bit rate                                 : 640 Kbps
Channel(s)                               : 6 channels
Channel positions                        : Front: L C R, Side: L R, LFE
Sampling rate                            : 48.0 KHz
Bit depth                                : 16 bits
Compression mode                         : Lossy
Stream size                              : 513 MiB (6%)
Title                                    : www.club-hd.com  >>  Latino AC3
Language                                 : Spanish
Default                                  : Yes
Forced                                   : No

Audio #2
ID                                       : 3
Format                                   : AC-3
Format/Info                              : Audio Coding 3
Mode extension                           : CM (complete main)
Format settings, Endianness              : Big
Muxing mode                              : Header stripping
Codec ID                                 : A_AC3
Duration                                 : 1h 52mn
Bit rate mode                            : Constant
Bit rate                                 : 640 Kbps
Channel(s)                               : 6 channels
Channel positions                        : Front: L C R, Side: L R, LFE
Sampling rate                            : 48.0 KHz
Bit depth                                : 16 bits
Compression mode                         : Lossy
Stream size                              : 513 MiB (6%)
Title                                    : www.club-hd.com  >>  Inglés AC3
Language                                 : English
Default                                  : No
Forced                                   : No

Audio #3
ID                                       : 4
Format                                   : DTS
Format/Info                              : Digital Theater Systems
Mode                                     : 16
Format settings, Endianness              : Big
Muxing mode                              : Header stripping
Codec ID                                 : A_DTS
Duration                                 : 1h 52mn
Bit rate mode                            : Constant
Bit rate                                 : 1 509 Kbps
Channel(s)                               : 6 channels
Channel positions                        : Front: L C R, Side: L R, LFE
Sampling rate                            : 48.0 KHz
Bit depth                                : 24 bits
Compression mode                         : Lossy
Stream size                              : 1.18 GiB (14%)
Title                                    : www.club-hd.com  >>  Inglés DTS
Language                                 : English
Default                                  : No
Forced                                   : No

Text #1
ID                                       : 5
Format                                   : UTF-8
Codec ID                                 : S_TEXT/UTF8
Codec ID/Info                            : UTF-8 Plain Text
Title                                    : Forzados
Language                                 : Spanish
Default                                  : Yes
Forced                                   : No

Text #2
ID                                       : 6
Format                                   : UTF-8
Codec ID                                 : S_TEXT/UTF8
Codec ID/Info                            : UTF-8 Plain Text
Title                                    : Completos
Language                                 : Spanish
Default                                  : No
Forced                                   : No

Menu
00:00:00.000                             : en:00:00:00.000
00:06:13.665                             : en:00:06:13.665
00:13:05.535                             : en:00:13:05.535
00:18:40.995                             : en:00:18:40.995
00:24:56.829                             : en:00:24:56.829
00:29:07.663                             : en:00:29:07.663
00:41:33.366                             : en:00:41:33.366
00:49:40.227                             : en:00:49:40.227
00:55:56.144                             : en:00:55:56.144
01:00:08.897                             : en:01:00:08.897
01:08:12.672                             : en:01:08:12.672
01:12:39.897                             : en:01:12:39.897
01:21:34.473                             : en:01:21:34.473
01:26:22.094                             : en:01:26:22.094
01:33:58.800                             : en:01:33:58.800
01:38:31.656                             : en:01:38:31.656
01:41:49.520                             : en:01:41:49.520




Descarga.jpg



MEGA.jpg

Tenemos TODO el material de Club-HD disponible por Mega, enlaces 100% activos y online hasta la fecha

Llévate tus cuentas Mega PRO III gratis con tu membresía VIP!
Todos los posts vivos con links de Mega.
Todo el material de Club-HD desbloqueado y sin publicidad.

Obtén más información sobre nuestras Membresías VIP



UPLOADED_BANNER.png

Para ver este contenido oculto, debes dar click en el botón"Like", o cualquiera de las otras reacciones:

Me Gusta Me Gusta, Me Encanta Me Encanta, Jaja Jaja, Wow Wow, Triste Triste, Molesto Molesto


google-drive.png

Para ver este contenido oculto, debes dar click en el botón"Like", o cualquiera de las otras reacciones:

Me Gusta Me Gusta, Me Encanta Me Encanta, Jaja Jaja, Wow Wow, Triste Triste, Molesto Molesto
 
Última edición por un moderador:
gracias men excelente pelicula como siempre buenos aportes de calidad
 
si, ya estaba que me mordia las unas< muchas grasias
 
Volver