Tinker Bell: Secret of the Wings (2012) 3D H-SBS 1080p BDRip Dual Latino-Inglés [Subt. Esp] (Animación)

Maestro Revolver

Well-known member
Miembro del Staff
Administrador
Registro
9 Ago 2012
Mensajes
3.569
Reacciones
59.346
Puntos
113

Reputation:









TÍTULO ORIGINAL: Tinker Bell: Secret of the Wings (A Winter Story)
AÑO: 2012
PAÍS: USA
DIRECTOR: Bradley Raymond
GUIÓN: Ryan Rowe (Personajes: J.M. Barrie)
REPARTO: Animation
PRODUCTORA: Walt Disney Pictures / DisneyToon Studios
GÉNERO: Animación. Fantástico. Infantil
http://www.imdb.com/title/tt1217213/





Todos los mundos fantásticos están rodeados de secretos, misterios y aventuras y el mundo de las hadas no puede ser la excepción. La curiosa y traviesa Tinker Bell viaja con sus amigas hadas hasta el prohibido mundo del misterioso Bosque del Invierno, donde Tinker Bell conoce a Periwinkle. En medio de emocionantes sorpresas, la curiosidad y el coraje llevarán a Tink hacia un apasionante descubrimiento y le revelará un mágico secreto que podría cambiar su vida para siempre.
























La pelicula NO tiene ninguna marca... solo colocamos el nombre de esta web en las capturas






Código:
General
Format                           : Matroska
Format version                   : Version 3 / Version 2
File size                        : 5.81 GiB
Duration                         : 1h 15mn
Overall bit rate                 : 11.1 Mbps
Movie name                       : www.club-hd.com
Encoded date                     : UTC 2012-10-15 01:30:17
Writing application              : mkvmerge v5.7.0 ('The Whirlwind') built on Jul  8 2012 20:08:51
Writing library                  : libebml v1.2.3 + libmatroska v1.3.0

Video
ID                               : 1
Format                           : AVC
Format/Info                      : Advanced Video Codec
Format profile                   : High@L4.1
MultiView_Count                  : 2
MultiView_Layout                 : Side by Side (left eye first)
Format settings, CABAC           : Yes
Format settings, ReFrames        : 4 frames
Codec ID                         : V_MPEG4/ISO/AVC
Duration                         : 1h 15mn
Bit rate                         : 8 068 Kbps
Width                            : 1 920 pixels
Height                           : 1 080 pixels
Display aspect ratio             : 16:9
Frame rate                       : 23.976 fps
Color space                      : YUV
Chroma subsampling               : 4:2:0
Bit depth                        : 8 bits
Scan type                        : Progressive
Bits/(Pixel*Frame)               : 0.162
Stream size                      : 4.23 GiB (73%)
Title                            : www.club-hd.com
Writing library                  : x264 core 128 r2216 198a7ea
Language                         : English
Default                          : Yes
Forced                           : No

Audio #1
ID                               : 2
Format                           : AC-3
Format/Info                      : Audio Coding 3
Mode extension                   : CM (complete main)
Codec ID                         : A_AC3
Duration                         : 1h 15mn
Bit rate mode                    : Constant
Bit rate                         : 640 Kbps
Channel(s)                       : 6 channels
Channel positions                : Front: L C R, Side: L R, LFE
Sampling rate                    : 48.0 KHz
Bit depth                        : 16 bits
Compression mode                 : Lossy
Stream size                      : 344 MiB (6%)
Title                            : www.club-hd.com  >>  Latino AC3 5.1
Language                         : Spanish
Default                          : Yes
Forced                           : No

Audio #2
ID                               : 3
Format                           : AC-3
Format/Info                      : Audio Coding 3
Mode extension                   : CM (complete main)
Codec ID                         : A_AC3
Duration                         : 1h 15mn
Bit rate mode                    : Constant
Bit rate                         : 640 Kbps
Channel(s)                       : 6 channels
Channel positions                : Front: L C R, Side: L R, LFE
Sampling rate                    : 48.0 KHz
Bit depth                        : 16 bits
Compression mode                 : Lossy
Stream size                      : 344 MiB (6%)
Title                            : www.club-hd.com  >>  Inglés AC3 5.1
Language                         : English
Default                          : No
Forced                           : No

Audio #3
ID                               : 4
Format                           : DTS
Format/Info                      : Digital Theater Systems
Codec ID                         : A_DTS
Duration                         : 1h 15mn
Bit rate mode                    : Constant
Bit rate                         : 1 510 Kbps
Channel(s)                       : 6 channels
Channel positions                : Front: L C R, Side: L R, LFE
Sampling rate                    : 48.0 KHz
Bit depth                        : 24 bits
Compression mode                 : Lossy
Stream size                      : 811 MiB (14%)
Title                            : www.club-hd.com  >>  Inglés DTS 5.1
Language                         : English
Default                          : No
Forced                           : No

Text
ID                               : 5
Format                           : UTF-8
Codec ID                         : S_TEXT/UTF8
Codec ID/Info                    : UTF-8 Plain Text
Language                         : Spanish
Default                          : No
Forced                           : No

Menu
00:00:00.000                     : en:00:00:00.000
00:05:53.019                     : en:00:05:53.019
00:09:04.627                     : en:00:09:04.627
00:14:10.516                     : en:00:14:10.516
00:20:32.481                     : en:00:20:32.481
00:28:17.404                     : en:00:28:17.404
00:34:46.209                     : en:00:34:46.209
00:40:26.466                     : en:00:40:26.466
00:48:07.134                     : en:00:48:07.134
00:53:50.686                     : en:00:53:50.686
01:00:37.175                     : en:01:00:37.175
01:07:47.563                     : en:01:07:47.563











Enlaces de Mega y Fireload solo disponibles para Miembros VIP

Compra tu Membresía VIP y apoya a Club-HD!

ATENCIÓN! Tenemos TODO el material de Club-HD disponible por Mega y Fireload, enlaces 100% activos y online hasta la fecha

Llévate tus cuentas Mega PRO II gratis con tu membresía VIP!
Todos los posts vivos con links de Mega y Fireload.
Todo el material de Club-HD desbloqueado y sin publicidad.

Click Aquí para más información.


Enlaces de Mega y Fireload solo disponibles para Miembros VIP

Compra tu Membresía VIP y apoya a Club-HD!

ATENCIÓN! Tenemos TODO el material de Club-HD disponible por Mega y Fireload, enlaces 100% activos y online hasta la fecha

Llévate tus cuentas Mega PRO II gratis con tu membresía VIP!
Todos los posts vivos con links de Mega y Fireload.
Todo el material de Club-HD desbloqueado y sin publicidad.

Click Aquí para más información.


Para ver este contenido oculto, debes dar click en una de las siguientes reacciones : Like Like, Love Love, Haha Haha, Wow Wow, Sad Sad, Angry Angry
 
Última edición:

Nosferatu

Well-known member
Súper Moderador
Registro
31 Ago 2012
Mensajes
2.275
Reacciones
1.362
Puntos
113
Edad
44
Ubicación
Welcome to Hell!!

Reputation:

uy! con esta te saltaste la varda y la casa Excelente.:aplausos:

GRACIAS MAESTRO!!! :LXR::dplgar:
 

trailblazer 2.0

Well-known member
Miembro del Staff
Súper Moderador
Registro
28 Ago 2012
Mensajes
2.787
Reacciones
1.120
Puntos
113
Ubicación
Ciudad Macross

Reputation:

:LXR: gracias maestro, me quede con la de 720 no soy muy exigente :D, para cuando skyfall, S_T1, era broma , no deberas
 

Omar Herrera

Well-known member
Miembro del Staff
Súper Moderador
Registro
27 Ago 2012
Mensajes
1.234
Reacciones
325
Puntos
83
Edad
32
Ubicación
Managua

Reputation:

Gracias Revolver!... aunque me llevo la de 720p :dplgar:
 

angumon30

Active member
Registro
27 Ago 2012
Mensajes
1.093
Reacciones
15
Puntos
38
Edad
41

Reputation:

a ver que tal esta en 3 jeje muchas gracias
 

sinpk2

New member
Registro
29 Ago 2012
Mensajes
360
Reacciones
17
Puntos
0

Reputation:

chaaaaaaaaaaaaaaaaaaaaaaaaaa, eres grande mastro jijijijiji
 

Usuarios Que Están Viendo Este Tema (Total: 1, Miembros: 0, Invitados: 1)

Arriba