Titanic (1997) 1080p Dual Latino-Ingles [Subt. Esp-Ing] (Romance. Drama. Aventura)

Maestro Revolver

Well-known member
Miembro del Staff
Administrador
Registro
9 Ago 2012
Mensajes
3.567
Aporte Recuperado gracias a nuestro amigo clasaase







TÍTULO ORIGINAL: Titanic
AÑO: 1997
DURACIÓN: 3h 6mn
PAÍS: USA
DIRECTOR: James Cameron
GUIÓN: James Cameron
REPARTO: Leonardo DiCaprio, Kate Winslet, Billy Zane, Kathy Bates, Frances Fisher, Bernard Hill, Jonathan Hyde, Danny Nucci, David Warner, Bill Paxton, Gloria Stuart, Victor Garber, Suzy Amis
PRODUCTORA: Paramount Pictures / 20th Century Fox / Lightstorm Entertainment
GÉNERO: Romance. Drama. Aventuras | Drama romántico. Basado en hechos reales. Catástrofes. Titanic. Cine épico
http://www.imdb.com/title/tt0120338/
PREMIOS: 1997: 11 Oscars, incluyendo mejor película, director, fotografía, sonido. 14 nominaciones
1997: 4 Globos de Oro: Mejor película drama, director, bso, canción. 8 nominaciones
1997: 10 nominaciones a los BAFTA, incluyendo maquillaje, efectos visuales, montaje
1997: Premios Cesar: Nminada a mejor película extranjera
1997: National Board of Review: Mejor director






Jack (DiCaprio), un joven artista, gana en una partida de cartas un pasaje para viajar a América en el Titanic, el trasatlántico más grande y seguro jamás construido. A bordo conoce a Rose (Kate Winslet), una joven de una buena familia venida a menos que va a contraer un matrimonio de conveniencia con Cal (Billy Zane), un millonario engreído a quien sólo interesa el prestigioso apellido de su prometida. Jack y Rose se enamoran, pero el prometido y la madre de ella ponen todo tipo de trabas a su relación. Mientras, el gigantesco y lujoso trasatlántico se aproxima hacia un inmenso iceberg...




























La pelicula NO tiene ninguna marca... solo colocamos el nombre de esta web en las capturas






Código:
General
Format                                   : Matroska
Format version                           : Version 4 / Version 2
File size                                : 14.6 GiB
Duration                                 : 3h 14mn
Overall bit rate                         : 10.7 Mbps
Movie name                               : www.club-hd.com
Encoded date                             : UTC 2016-03-20 15:03:54
Writing application                      : mkvmerge v7.1.0 ('Good Love') 64bit built on Jul 27 2014 13:06:55
Writing library                          : libebml v1.3.0 + libmatroska v1.4.1

Video
ID                                       : 1
Format                                   : AVC
Format/Info                              : Advanced Video Codec
Format profile                           : High@L4.1
Format settings, CABAC                   : Yes
Format settings, ReFrames                : 5 frames
Codec ID                                 : V_MPEG4/ISO/AVC
Duration                                 : 3h 14mn
Bit rate                                 : 8 129 Kbps
Width                                    : 1 920 pixels
Height                                   : 816 pixels
Display aspect ratio                     : 2.35:1
Frame rate mode                          : Constant
Frame rate                               : 23.976 (24000/1001) fps
Color space                              : YUV
Chroma subsampling                       : 4:2:0
Bit depth                                : 8 bits
Scan type                                : Progressive
Bits/(Pixel*Frame)                       : 0.216
Stream size                              : 11.1 GiB (76%)
Title                                    : www.club-hd.com
Writing library                          : x264 core 125 r2208 d9d2288
Language                                 : English
Default                                  : Yes
Forced                                   : No

Audio #1
ID                                       : 2
Format                                   : AC-3
Format/Info                              : Audio Coding 3
Mode extension                           : CM (complete main)
Format settings, Endianness              : Big
Codec ID                                 : A_AC3
Duration                                 : 3h 14mn
Bit rate mode                            : Constant
Bit rate                                 : 640 Kbps
Channel(s)                               : 6 channels
Channel positions                        : Front: L C R, Side: L R, LFE
Sampling rate                            : 48.0 KHz
Frame rate                               : 31.250 fps (1536 spf)
Compression mode                         : Lossy
Stream size                              : 892 MiB (6%)
Title                                    : www.club-hd.com  >>  Latino AC3 5.1
Language                                 : Spanish
Default                                  : Yes
Forced                                   : No

Audio #2
ID                                       : 3
Format                                   : AC-3
Format/Info                              : Audio Coding 3
Mode extension                           : CM (complete main)
Format settings, Endianness              : Big
Codec ID                                 : A_AC3
Duration                                 : 3h 14mn
Bit rate mode                            : Constant
Bit rate                                 : 448 Kbps
Channel(s)                               : 6 channels
Channel positions                        : Front: L C R, Side: L R, LFE
Sampling rate                            : 48.0 KHz
Frame rate                               : 31.250 fps (1536 spf)
Compression mode                         : Lossy
Stream size                              : 624 MiB (4%)
Title                                    : www.club-hd.com  >>  Ingles AC3 5.1
Language                                 : English
Default                                  : No
Forced                                   : No

Audio #3
ID                                       : 4
Format                                   : DTS
Format/Info                              : Digital Theater Systems
Mode                                     : 16
Format settings, Endianness              : Big
Codec ID                                 : A_DTS
Duration                                 : 3h 14mn
Bit rate mode                            : Constant
Bit rate                                 : 1 509 Kbps
Channel(s)                               : 6 channels
Channel positions                        : Front: L C R, Side: L R, LFE
Sampling rate                            : 48.0 KHz
Frame rate                               : 93.750 fps (512 spf)
Bit depth                                : 24 bits
Compression mode                         : Lossy
Stream size                              : 2.05 GiB (14%)
Title                                    : DTS
Language                                 : English
Default                                  : No
Forced                                   : No

Text #1
ID                                       : 5
Format                                   : UTF-8
Codec ID                                 : S_TEXT/UTF8
Codec ID/Info                            : UTF-8 Plain Text
Duration                                 : 54mn 25s
Bit rate                                 : 0 bps
Count of elements                        : 4
Stream size                              : 140 Bytes (0%)
Title                                    : Forzados
Language                                 : Spanish
Default                                  : Yes
Forced                                   : No

Text #2
ID                                       : 6
Format                                   : UTF-8
Codec ID                                 : S_TEXT/UTF8
Codec ID/Info                            : UTF-8 Plain Text
Duration                                 : 3h 1mn
Bit rate                                 : 43 bps
Count of elements                        : 2013
Stream size                              : 57.3 KiB (0%)
Title                                    : Completos
Language                                 : Spanish
Default                                  : No
Forced                                   : No

Menu
00:00:00.000                             : en:00:00:00.000
00:01:24.376                             : en:00:01:24.376
00:04:39.988                             : en:00:04:39.988
00:08:26.131                             : en:00:08:26.131
00:10:46.771                             : en:00:10:46.771
00:12:52.647                             : en:00:12:52.647
00:16:52.428                             : en:00:16:52.428
00:20:07.748                             : en:00:20:07.748
00:23:38.876                             : en:00:23:38.876
00:26:26.543                             : en:00:26:26.543
00:29:03.366                             : en:00:29:03.366
00:29:37.526                             : en:00:29:37.526
00:34:59.931                             : en:00:34:59.931
00:36:48.623                             : en:00:36:48.623
00:42:59.160                             : en:00:42:59.160
00:45:26.098                             : en:00:45:26.098
00:47:11.620                             : en:00:47:11.620
00:53:33.043                             : en:00:53:33.043
00:56:47.988                             : en:00:56:47.988
01:05:32.053                             : en:01:05:32.053
01:10:19.965                             : en:01:10:19.965
01:14:06.358                             : en:01:14:06.358
01:16:10.691                             : en:01:16:10.691
01:19:59.044                             : en:01:19:59.044
01:22:50.507                             : en:01:22:50.507
01:23:40.056                             : en:01:23:40.056
01:28:21.629                             : en:01:28:21.629
01:29:19.854                             : en:01:29:19.854
01:32:52.275                             : en:01:32:52.275
01:36:59.104                             : en:01:36:59.104
01:44:41.149                             : en:01:44:41.149
01:46:21.041                             : en:01:46:21.041
01:47:58.847                             : en:01:47:58.847
01:50:11.104                             : en:01:50:11.104
01:52:21.401                             : en:01:52:21.401
01:53:54.327                             : en:01:53:54.327
01:55:21.831                             : en:01:55:21.831
01:56:10.880                             : en:01:56:10.880
01:57:53.232                             : en:01:57:53.232
02:06:38.340                             : en:02:06:38.340
02:08:49.972                             : en:02:08:49.972
02:11:22.082                             : en:02:11:22.082
02:15:42.550                             : en:02:15:42.550
02:19:43.458                             : en:02:19:43.458
02:21:24.559                             : en:02:21:24.559
02:25:28.761                             : en:02:25:28.761
02:27:28.422                             : en:02:27:28.422
02:29:07.271                             : en:02:29:07.271
02:29:56.695                             : en:02:29:56.695
02:33:31.535                             : en:02:33:31.535
02:36:52.360                             : en:02:36:52.360
02:38:33.878                             : en:02:38:33.878
02:40:34.666                             : en:02:40:34.666
02:45:00.640                             : en:02:45:00.640
02:47:48.808                             : en:02:47:48.808
02:49:22.526                             : en:02:49:22.526
02:52:09.610                             : en:02:52:09.610
02:53:41.327                             : en:02:53:41.327
02:57:53.495                             : en:02:57:53.495
02:59:35.305                             : en:02:59:35.305
03:01:29.252                             : en:03:01:29.252
03:03:13.648                             : en:03:03:13.648
03:04:57.877                             : en:03:04:57.877
03:07:19.644                             : en:03:07:19.644




CONTRASEÑA










Todos los links son Intercambiables



Enlaces de Mega y Google Drive solo disponibles para Miembros VIP

Compra tu Membresía VIP y apoya a Club-HD!

ATENCIÓN! Tenemos TODO el material de Club-HD disponible por Mega y Google Drive, enlaces 100% activos y online hasta la fecha

Llévate tus cuentas Mega PRO III gratis con tu membresía VIP!
Todos los posts vivos con links de Mega y Google Drive.
Todo el material de Club-HD desbloqueado y sin publicidad.

Click Aquí para más información.



Para ver este contenido oculto, debes dar click en una de las siguientes reacciones : Like Like, Love Love, Haha Haha, Wow Wow, Sad Sad, Angry Angry



Para ver este contenido oculto, debes dar click en una de las siguientes reacciones : Like Like, Love Love, Haha Haha, Wow Wow, Sad Sad, Angry Angry
 
Última edición por un moderador:

JEACHI

New member
Registro
28 Ago 2012
Mensajes
106
Edad
10
que buena peli cuando la colocan 720p y si esta peso 26gb minimo 12 gb:dplgar: en 720p b
 

wdbm86

New member
Baneado
Registro
27 Ago 2012
Mensajes
264
Edad
35
yo me quedo con la version del antiguo blog en hd-tv, tiene muy buena calidad tambien :D igual grandes muchachos, gracias
 

KROONIUM

New member
Registro
28 Ago 2012
Mensajes
40
Muchas gracias muchachos, la verdad se vinieron con todo, suben películas de todos los colores. Felicitaciones :)
 

juan_fornaris

New member
Registro
28 Ago 2012
Mensajes
144
Un millón de gracias R21. Estos son los aportes que me enamoran de ésta web. 27GB son perfectamente aceptables cuando se visualiza una pelicula en full 1080p, es decir copiado tal y como lo contiene el disco Blu-Ray sin abreviaciones ni alteraciones al bitrate o códecs de video o audio. Además es una película de 3 horas y 14 minutos, y si se tiene equipado el pc con quemador de Blu-Ray te queda listo el BRrip. La de Avatar me pesa 20,2GB pero tiene 15 minutos menos de metraje. A Descargar se ha dicho...!!!
 

Usuarios Que Están Viendo Este Tema (Total: 1, Miembros: 0, Invitados: 1)

Quién Leyó Este Tema (Total Miembros: 3)

Arriba