Titanic (1997) 1080p Dual Latino-Ingles [Subt. Esp-Ing] (Romance. Drama. Aventura)

Maestro Revolver

Administrador
Registro
9 Ago 2012
Mensajes
3.157
Reacciones (ptje)
54.885
Aporte recuperado gracias a nuestro amigo clasaase

Titanic1080p.jpg




FICHA_TECNICA.png


TÍTULO ORIGINAL: Titanic
AÑO: 1997
DURACIÓN: 3h 6mn
PAÍS: USA
DIRECTOR: James Cameron
GUIÓN: James Cameron
REPARTO: Leonardo DiCaprio, Kate Winslet, Billy Zane, Kathy Bates, Frances Fisher, Bernard Hill, Jonathan Hyde, Danny Nucci, David Warner, Bill Paxton, Gloria Stuart, Victor Garber, Suzy Amis
PRODUCTORA: Paramount Pictures / 20th Century Fox / Lightstorm Entertainment
GÉNERO: Romance. Drama. Aventuras | Drama romántico. Basado en hechos reales. Catástrofes. Titanic. Cine épico
imdb-logo.png
http://www.imdb.com/title/tt0120338/
PREMIOS: 1997: 11 Oscars, incluyendo mejor película, director, fotografía, sonido. 14 nominaciones
1997: 4 Globos de Oro: Mejor película drama, director, bso, canción. 8 nominaciones
1997: 10 nominaciones a los BAFTA, incluyendo maquillaje, efectos visuales, montaje
1997: Premios Cesar: Nminada a mejor película extranjera
1997: National Board of Review: Mejor director




SINOPSIS.png


Jack (DiCaprio), un joven artista, gana en una partida de cartas un pasaje para viajar a América en el Titanic, el trasatlántico más grande y seguro jamás construido. A bordo conoce a Rose (Kate Winslet), una joven de una buena familia venida a menos que va a contraer un matrimonio de conveniencia con Cal (Billy Zane), un millonario engreído a quien sólo interesa el prestigioso apellido de su prometida. Jack y Rose se enamoran, pero el prometido y la madre de ella ponen todo tipo de trabas a su relación. Mientras, el gigantesco y lujoso trasatlántico se aproxima hacia un inmenso iceberg...




TRAILER.png






CAPTURAS.png


0.jpg


2.jpg


3.jpg


4.jpg


5.jpg


6.jpg


7.jpg


8.jpg


La pelicula NO tiene ninguna marca... solo colocamos el nombre de esta web en las capturas




MediaInfo.jpg


Código:
General
Format                      : Matroska
Format version              : Version 4
File size                   : 20.1 GiB
Duration                    : 3 h 14 min
Overall bit rate mode       : Variable
Overall bit rate            : 14.8 Mb/s
Encoded date                : UTC 2015-08-31 17:06:54
Writing application         : mkvmerge v7.8.0 ('River Man') 32bit built on Mar 27 2015 16:18:02
Writing library             : libebml v1.3.1 + libmatroska v1.4.2

Video
ID                          : 1
Format                      : AVC
Format/Info                 : Advanced Video Codec
Format profile              : [email protected]
Format settings             : CABAC / 4 Ref Frames
Format settings, CABAC      : Yes
Format settings, Reference  : 4 frames
Codec ID                    : V_MPEG4/ISO/AVC
Duration                    : 3 h 14 min
Bit rate mode               : Variable
Bit rate                    : 10.0 Mb/s
Maximum bit rate            : 35.0 Mb/s
Width                       : 1 920 pixels
Height                      : 1 080 pixels
Display aspect ratio        : 16:9
Frame rate mode             : Constant
Frame rate                  : 23.976 (24000/1001) FPS
Color space                 : YUV
Chroma subsampling          : 4:2:0
Bit depth                   : 8 bits
Scan type                   : Progressive
Bits/(Pixel*Frame)          : 0.201
Stream size                 : 13.6 GiB (68%)
Title                       : 1080p
Writing library             : x264 core 125 r2200 999b753
Encoding settings           : cabac=1 / ref=4 / deblock=1:0:0 / analyse=0x3:0x113 / me=umh / subme=8 / psy=1 / psy_rd=1.00:0.00 / mixed_ref=1 / me_range=16 / chroma_me=1 / trellis=1 / 8x8dct=1 / cqm=0 / deadzone=21,11 / fast_pskip=1 / chroma_qp_offset=-2 / threads=12 / lookahead_threads=2 / sliced_threads=0 / slices=4 / nr=0 / decimate=1 / interlaced=0 / bluray_compat=1 / constrained_intra=0 / bframes=3 / b_pyramid=0 / b_adapt=1 / b_bias=0 / direct=3 / weightb=1 / open_gop=0 / weightp=1 / keyint=24 / keyint_min=1 / scenecut=40 / intra_refresh=0 / rc_lookahead=24 / rc=2pass / mbtree=1 / bitrate=10012 / ratetol=1.0 / qcomp=0.60 / qpmin=0 / qpmax=69 / qpstep=4 / cplxblur=20.0 / qblur=0.5 / vbv_maxrate=35000 / vbv_bufsize=30000 / nal_hrd=vbr / ip_ratio=1.10 / aq=1:1.00
Language                    : English
Default                     : Yes
Forced                      : No

Audio #1
ID                          : 2
Format                      : AC-3
Format/Info                 : Audio Coding 3
Commercial name             : Dolby Digital
Codec ID                    : A_AC3
Duration                    : 3 h 14 min
Bit rate mode               : Constant
Bit rate                    : 640 kb/s
Channel(s)                  : 6 channels
Channel layout              : L R C LFE Ls Rs
Sampling rate               : 48.0 kHz
Frame rate                  : 31.250 FPS (1536 SPF)
Compression mode            : Lossy
Stream size                 : 892 MiB (4%)
Title                       : Latino AC3 5.1
Language                    : Spanish
Service kind                : Complete Main
Default                     : Yes
Forced                      : No

Audio #2
ID                          : 3
Format                      : AC-3
Format/Info                 : Audio Coding 3
Commercial name             : Dolby Digital
Format settings             : Dolby Surround
Codec ID                    : A_AC3
Duration                    : 3 h 14 min
Bit rate mode               : Constant
Bit rate                    : 224 kb/s
Channel(s)                  : 2 channels
Channel layout              : L R
Sampling rate               : 48.0 kHz
Frame rate                  : 31.250 FPS (1536 SPF)
Compression mode            : Lossy
Stream size                 : 312 MiB (2%)
Title                       : Ingles AC3 5.1
Language                    : English
Service kind                : Complete Main
Default                     : No
Forced                      : No

Audio #3
ID                          : 4
Format                      : DTS XLL
Format/Info                 : Digital Theater Systems
Commercial name             : DTS-HD Master Audio
Codec ID                    : A_DTS
Duration                    : 3 h 14 min
Bit rate mode               : Variable
Bit rate                    : 3 891 kb/s
Channel(s)                  : 6 channels
Channel layout              : C L R Ls Rs LFE
Sampling rate               : 48.0 kHz
Frame rate                  : 93.750 FPS (512 SPF)
Bit depth                   : 24 bits
Compression mode            : Lossless
Stream size                 : 5.30 GiB (26%)
Title                       : Ingles DTS 5.1
Language                    : English
Default                     : No
Forced                      : No

Text #1
ID                          : 5
Format                      : UTF-8
Codec ID                    : S_TEXT/UTF8
Codec ID/Info               : UTF-8 Plain Text
Duration                    : 54 min 25 s
Bit rate                    : 0 b/s
Frame rate                  : 0.001 FPS
Count of elements           : 4
Stream size                 : 140 Bytes (0%)
Title                       : Latino Forzado
Language                    : Spanish
Default                     : Yes
Forced                      : No

Text #2
ID                          : 6
Format                      : UTF-8
Codec ID                    : S_TEXT/UTF8
Codec ID/Info               : UTF-8 Plain Text
Duration                    : 3 h 1 min
Bit rate                    : 43 b/s
Frame rate                  : 0.185 FPS
Count of elements           : 2013
Stream size                 : 57.3 KiB (0%)
Title                       : Latino Completo
Language                    : Spanish
Default                     : No
Forced                      : No

Text #3
ID                          : 7
Format                      : UTF-8
Codec ID                    : S_TEXT/UTF8
Codec ID/Info               : UTF-8 Plain Text
Duration                    : 3 h 1 min
Bit rate                    : 46 b/s
Frame rate                  : 0.193 FPS
Count of elements           : 2101
Stream size                 : 62.1 KiB (0%)
Title                       : Ingles Full
Language                    : English
Default                     : No
Forced                      : No

Menu
00:00:00.000                : en:Opening Credits
00:01:24.376                : en:Ghost Ship
00:04:39.988                : en:Into the Wreck
00:08:26.131                : en:The Keldysh
00:10:46.771                : en:The Woman in the Picture
00:12:52.647                : en:Old Rose Arrives
00:16:52.428                : en:Reflections of the Past
00:20:07.748                : en:Back to Titanic
00:23:38.876                : en:A Lucky Hand
00:26:26.543                : en:Leaving Port
00:29:03.366                : en:Cherbourg
00:29:37.526                : en:Ode to Titanic
00:34:59.931                : en:First Glance
00:36:48.623                : en:"You Jump, I Jump"
00:42:59.160                : en:An Invitation to Dinner
00:45:26.098                : en:The Heart of the Ocean
00:47:11.620                : en:Sketches and Stories
00:53:33.043                : en:Learning New Things
00:56:47.988                : en:Dinner with Jack
01:05:32.053                : en:A Real Party
01:10:19.965                : en:A Cold Breakfast
01:14:06.358                : en:Sunday Prayer
01:16:10.691                : en:"They've Got You Trapped
01:19:59.044                : en:Flying
01:22:50.507                : en:"That Was the Last Time..."
01:23:40.056                : en:The Drawing
01:28:21.629                : en:"My Heart Was Pounding"
01:29:19.854                : en:"Find Her"
01:32:52.275                : en:Two Souls United
01:36:59.104                : en:"Iceberg Right Ahead!"
01:44:41.149                : en:An Honest Thief
01:46:21.041                : en:A Mathematical Certainty
01:47:58.847                : en:A Stricken Relationship
01:50:11.104                : en:Andrews Tells Rose
01:52:21.401                : en:Women and Children First
01:53:54.327                : en:Third Class Patience
01:55:21.831                : en:A Small Token of Appreciation
01:56:10.880                : en:"Goodbye, Mother"
01:57:53.232                : en:"Can Anybody Hear Me?"
02:06:38.340                : en:A View From the Lifeboats
02:08:49.972                : en:Third Class Panic
02:11:22.082                : en:Starting to Fall Apart
02:15:42.550                : en:"Get on the Boat, Rose"
02:19:43.458                : en:Cal Spurned
02:21:24.559                : en:Flooding Below Decks
02:25:28.761                : en:Two Tragic Bullets
02:27:28.422                : en:Questions of Character
02:29:07.271                : en:Captain Smith
02:29:56.695                : en:Nearer My God to Thee
02:33:31.535                : en:Shattered Dreams
02:36:52.360                : en:At the Siren
02:38:33.878                : en:Prayer for the Dying
02:40:34.666                : en:Death of Titanic
02:45:00.640                : en:Sea of Humanity
02:47:48.808                : en:In the Lifeboats
02:49:22.526                : en:The Promise
02:52:09.610                : en:"We Waited Too Long"
02:53:41.327                : en:"I'll Never Let Go"
02:57:53.495                : en:Never an Absolution
02:59:35.305                : en:The Carpathia
03:01:29.252                : en:Expedition's End
03:03:13.648                : en:Rose's Secret
03:04:57.877                : en:A Promise Dept
03:07:19.644                : en:End Credits




CONTRASEÑA






Descarga.jpg




Todos los links son Intercambiables

MEGA-BANNER.png


Tenemos TODO el material de Club-HD disponible por Mega, enlaces 100% activos y online hasta la fecha

Llévate tus cuentas Mega PRO III gratis con tu membresía VIP!
Todos los posts vivos con links de Mega.
Todo el material de Club-HD desbloqueado y sin publicidad.

Obtén más información sobre nuestras Membresías VIP


UPLOADED_BANNER.png


Para ver este contenido oculto, debes dar click en el botón"Like", o cualquiera de las otras reacciones:

Me Gusta Me Gusta, Me Encanta Me Encanta, Jaja Jaja, Wow Wow, Triste Triste, Molesto Molesto

google-drive.png


Para ver este contenido oculto, debes dar click en el botón"Like", o cualquiera de las otras reacciones:

Me Gusta Me Gusta, Me Encanta Me Encanta, Jaja Jaja, Wow Wow, Triste Triste, Molesto Molesto
 
Última edición por un moderador:
que buena peli cuando la colocan 720p y si esta peso 26gb minimo 12 gb:dplgar: en 720p b
 
muy buena, pero podrias subir el audio latino, es que ya la tengo en 720p ingles
 
yo me quedo con la version del antiguo blog en hd-tv, tiene muy buena calidad tambien :D igual grandes muchachos, gracias
 
Muchas gracias muchachos, la verdad se vinieron con todo, suben películas de todos los colores. Felicitaciones :)
 
Un millón de gracias R21. Estos son los aportes que me enamoran de ésta web. 27GB son perfectamente aceptables cuando se visualiza una pelicula en full 1080p, es decir copiado tal y como lo contiene el disco Blu-Ray sin abreviaciones ni alteraciones al bitrate o códecs de video o audio. Además es una película de 3 horas y 14 minutos, y si se tiene equipado el pc con quemador de Blu-Ray te queda listo el BRrip. La de Avatar me pesa 20,2GB pero tiene 15 minutos menos de metraje. A Descargar se ha dicho...!!!
 
Volver