To Rome With Love (2012) m-720p BDRip Ingles [Subt. Esp] (Comedia. Romance)

Max

Admin
Miembro del Staff
Administrador
Registro
8 Ago 2012
Mensajes
5.585
Reacciones
23.738
Puntos
113
Ubicación
Disco C

Reputation:





TÍTULO ORIGINAL: To Rome With Love
TÍTULO EN LATINO: De Roma con amor
AÑO: 2012
DURACIÓN: 102 min.
PAÍS: Estados Unidos
DIRECTOR: Woody Allen
GUIÓN: Woody Allen
MÚSICA: Varios
FOTOGRAFÍA: Darius Khondji
REPARTO: Woody Allen, Alec Baldwin, Roberto Benigni, Penélope Cruz, Judy Davis, Jesse Eisenberg, Greta Gerwig, Ellen Page, Alison Pill, Ornella Muti, Riccardo Scamarcio, Alessandra Mastronardi, Flavio Parenti, Alessandro Tiberi, Carol Alt, David Pasquesi, Lynn Swanson, Vinicio Marchioni
PRODUCTORA: Coproducción EEUU-España-Italia; Gravier Productions / Mediapro / Medusa Film
GÉNERO: Comedia. Romance | Comedia romántica. Película de episodios

http://www.imdb.com/title/tt1859650/






Cuatro historias independientes con un escenario común: la ciudad de Roma. En la primera, un matrimonio americano (Woody Allen y Judy Davis) viaja a italia para conocer a la familia del prometido de su hija (Alison Pill). En la segunda, un italiano (Roberto Benigni) se hace famoso sin motivo de la noche a la mañana. En la tercera, un arquitecto californiano (Alec Baldwin) visita Roma con sus amigos donde conoce a un estudiante (Jesse Eisenberg) y, en la cuarta, una recién casados (Alessandra Mastronardi) se pierden en la capital italiana, a la que han ido a visitar a los familiares de su marido (Alessandro Tiberi).





































Código:
General
Complete name                    : To Rome With Love (2012) m-720p BDRip Ingles [Subt. Esp].mkv
Format                           : Matroska
Format version                   : Version 2
File size                        : 2.40 GiB
Duration                         : 1h 51mn
Overall bit rate                 : 3 074 Kbps
Movie name                       : www.club-hd.com --> To Rome With Love (2012) m-720p BDRip Ingles [Subt. Esp]
Encoded date                     : UTC 2012-10-13 09:40:38
Writing application              : mkvmerge v5.8.0 ('No Sleep / Pillow') built on Sep  2 2012 15:37:04
Writing library                  : libebml v1.2.3 + libmatroska v1.3.0

Video
ID                               : 1
Format                           : AVC
Format/Info                      : Advanced Video Codec
Format profile                   : High@L4.1
Format settings, CABAC           : Yes
Format settings, ReFrames        : 8 frames
Codec ID                         : V_MPEG4/ISO/AVC
Duration                         : 1h 51mn
Bit rate                         : 2 625 Kbps
Width                            : 1 280 pixels
Height                           : 692 pixels
Display aspect ratio             : 1.850
Frame rate                       : 23.976 fps
Color space                      : YUV
Chroma subsampling               : 4:2:0
Bit depth                        : 8 bits
Scan type                        : Progressive
Bits/(Pixel*Frame)               : 0.124
Stream size                      : 2.00 GiB (83%)
Title                            : www.club-hd.com --> To Rome With Love (2012) m-720p BDRip Ingles [Subt. Esp]
Writing library                  : x264 core 128 r2216 198a7ea
Encoding settings                : cabac=1 / ref=9 / deblock=1:-3:-3 / analyse=0x3:0x113 / me=umh / subme=10 / psy=1 / psy_rd=1.00:0.00 / mixed_ref=1 / me_range=16 / chroma_me=1 / trellis=2 / 8x8dct=1 / cqm=0 / deadzone=21,11 / fast_pskip=1 / chroma_qp_offset=-2 / threads=12 / lookahead_threads=2 / sliced_threads=0 / nr=0 / decimate=1 / interlaced=0 / bluray_compat=0 / constrained_intra=0 / bframes=3 / b_pyramid=1 / b_adapt=1 / b_bias=0 / direct=1 / weightb=1 / open_gop=0 / weightp=2 / keyint=250 / keyint_min=23 / scenecut=40 / intra_refresh=0 / rc=2pass / mbtree=0 / bitrate=2625 / ratetol=1.0 / qcomp=0.60 / qpmin=0 / qpmax=69 / qpstep=4 / cplxblur=20.0 / qblur=0.5 / ip_ratio=1.40 / pb_ratio=1.30 / aq=1:0.80
Language                         : English
Default                          : Yes
Forced                           : No

Audio
ID                               : 2
Format                           : AC-3
Format/Info                      : Audio Coding 3
Mode extension                   : CM (complete main)
Codec ID                         : A_AC3
Duration                         : 1h 51mn
Bit rate mode                    : Constant
Bit rate                         : 448 Kbps
Channel(s)                       : 6 channels
Channel positions                : Front: L C R, Side: L R, LFE
Sampling rate                    : 48.0 KHz
Bit depth                        : 16 bits
Compression mode                 : Lossy
Stream size                      : 359 MiB (15%)
Title                            : To Rome With Love (2012) - Ingles AC3 5.1
Language                         : English
Default                          : Yes
Forced                           : No

Text
ID                               : 3
Format                           : UTF-8
Codec ID                         : S_TEXT/UTF8
Codec ID/Info                    : UTF-8 Plain Text
Title                            : Subtítulos Español
Language                         : Spanish
Default                          : Yes
Forced                           : No

Menu
00:00:00.000                     : en:Chapter 1
00:06:19.546                     : en:Chapter 2
00:10:09.984                     : en:Chapter 3
00:12:16.152                     : en:Chapter 4
00:15:48.865                     : en:Chapter 5
00:19:16.364                     : en:Chapter 6
00:22:59.503                     : en:Chapter 7
00:28:42.554                     : en:Chapter 8
00:32:01.753                     : en:Chapter 9
00:38:15.001                     : en:Chapter 10
00:44:11.607                     : en:Chapter 11
00:49:16.078                     : en:Chapter 12
00:55:22.069                     : en:Chapter 13
00:59:14.384                     : en:Chapter 14
01:04:06.551                     : en:Chapter 15
01:08:56.424                     : en:Chapter 16
01:13:09.802                     : en:Chapter 17
01:17:49.248                     : en:Chapter 18
01:20:25.654                     : en:Chapter 19
01:25:38.467                     : en:Chapter 20
01:29:58.602                     : en:Chapter 21
01:34:37.547                     : en:Chapter 22
01:38:53.010                     : en:Chapter 23
01:40:38.324                     : en:Chapter 24











Enlaces de Mega y Fireload solo disponibles para Miembros VIP

Compra tu Membresía VIP y apoya a Club-HD!

ATENCIÓN! Tenemos TODO el material de Club-HD disponible por Mega y Fireload, enlaces 100% activos y online hasta la fecha

Llévate tus cuentas Mega PRO II gratis con tu membresía VIP!
Todos los posts vivos con links de Mega y Fireload.
Todo el material de Club-HD desbloqueado y sin publicidad.

Click Aquí para más información.


Enlaces de Mega y Fireload solo disponibles para Miembros VIP

Compra tu Membresía VIP y apoya a Club-HD!

ATENCIÓN! Tenemos TODO el material de Club-HD disponible por Mega y Fireload, enlaces 100% activos y online hasta la fecha

Llévate tus cuentas Mega PRO II gratis con tu membresía VIP!
Todos los posts vivos con links de Mega y Fireload.
Todo el material de Club-HD desbloqueado y sin publicidad.

Click Aquí para más información.



Para ver este contenido oculto, debes dar click en una de las siguientes reacciones : Like Like, Love Love, Haha Haha, Wow Wow, Sad Sad, Angry Angry
 
Última edición por un moderador:

Yonatan

Admin
Miembro del Staff
Administrador
Registro
27 Ago 2012
Mensajes
1.768
Reacciones
3.728
Puntos
113
Edad
28
Ubicación
Chile, Sexta Región

Reputation:

Terminare de descargar The expendables 2 y descargare esta a ver que tal la pelicula


Gracias Max :aplausos::aplausos::aplausos:

Saludos :dplgar:
 

Nosferatu

Well-known member
Súper Moderador
Registro
31 Ago 2012
Mensajes
2.275
Reacciones
1.362
Puntos
113
Edad
44
Ubicación
Welcome to Hell!!

Reputation:

se ve interesante me parece, y con ese reparto de actores.:dplgar:
Roberto Benigni ( La vita è bella "Guido" según me recuerdo) Excelente actor.

GRACIAS! por este tipo de películas mi amigo MAX! :LXR: :aplausos:
 

Omar Herrera

Well-known member
Miembro del Staff
Súper Moderador
Registro
27 Ago 2012
Mensajes
1.234
Reacciones
325
Puntos
83
Edad
32
Ubicación
Managua

Reputation:

Yes yes! esta me la llevo
Desc_g_
Gracias Max! ... es un poco raro verte a ti posteando este tipo de peliculas y no a Revolver
 

Usuarios Que Están Viendo Este Tema (Total: 1, Miembros: 0, Invitados: 1)

Arriba