Tom and Jerry's Giant Adventure (2013) 720p BDRip Dual Latino-Inglés (Animación)

Maestro Revolver

Well-known member
Miembro del Staff
Administrador
Registro
9 Ago 2012
Mensajes
3.567








TÍTULO ORIGINAL: Tom and Jerry's Giant Adventure
AÑO: 2013
DURACIÓN: 44 min.
PAÍS: USA
DIRECTOR: Spike Brandt, Tony Cervone
GUIÓN: Paul Dini
REPARTO: Animation
PRODUCTORA: Warner Bros. Home Entertainment
GÉNERO: Animación. Fantástico. Comedia | Cuentos. Gatos. Roedores. Tom y Jerry. Mediometraje
: http://www.imdb.com/title/tt3108584/






Tom y Jerry son los asistentes de Jack, el joven propietario de un parque de atracciones, el cual está pasando por unos momentos complicados, hasta que unas judías mágicas le dan la oportunidad de cambiar su situación. Tom y Jerry tienen que conseguir una oca dorada para salvar el parque. Adaptación libre de "Jack y las judías mágicas".
























La pelicula NO tiene ninguna marca... solo colocamos el nombre de esta web en las capturas






Código:
General
Format                                   : Matroska
Format version                           : Version 2
File size                                : 1.67 GiB
Duration                                 : 57mn 7s
Overall bit rate                         : 4 178 Kbps
Movie name                               : www.club-hd.com
Encoded date                             : UTC 2013-08-18 17:34:10
Writing application                      : mkvmerge v5.7.0 ('The Whirlwind') built on Jul  8 2012 20:08:51
Writing library                          : libebml v1.2.3 + libmatroska v1.3.0

Video
ID                                       : 1
Format                                   : AVC
Format/Info                              : Advanced Video Codec
Format profile                           : High@L4.1
Format settings, CABAC                   : Yes
Format settings, ReFrames                : 9 frames
Codec ID                                 : V_MPEG4/ISO/AVC
Duration                                 : 57mn 7s
Bit rate                                 : 3 263 Kbps
Width                                    : 1 280 pixels
Height                                   : 720 pixels
Display aspect ratio                     : 16:9
Frame rate mode                          : Constant
Frame rate                               : 23.976 fps
Color space                              : YUV
Chroma subsampling                       : 4:2:0
Bit depth                                : 8 bits
Scan type                                : Progressive
Bits/(Pixel*Frame)                       : 0.148
Stream size                              : 1.30 GiB (78%)
Title                                    : www.club-hd.com
Language                                 : English
Default                                  : Yes
Forced                                   : No

Audio #1
ID                                       : 2
Format                                   : AC-3
Format/Info                              : Audio Coding 3
Format profile                           : Dolby Digital
Mode extension                           : CM (complete main)
Format settings, Endianness              : Big
Codec ID                                 : A_AC3
Duration                                 : 57mn 7s
Bit rate mode                            : Constant
Bit rate                                 : 192 Kbps
Channel(s)                               : 2 channels
Channel positions                        : Front: L R
Sampling rate                            : 48.0 KHz
Bit depth                                : 16 bits
Compression mode                         : Lossy
Stream size                              : 78.4 MiB (5%)
Title                                    : www.club-hd.com > Latino
Language                                 : Spanish
Default                                  : Yes
Forced                                   : No

Audio #2
ID                                       : 3
Format                                   : AC-3
Format/Info                              : Audio Coding 3
Mode extension                           : CM (complete main)
Format settings, Endianness              : Big
Codec ID                                 : A_AC3
Duration                                 : 57mn 7s
Bit rate mode                            : Constant
Bit rate                                 : 640 Kbps
Channel(s)                               : 6 channels
Channel positions                        : Front: L C R, Side: L R, LFE
Sampling rate                            : 48.0 KHz
Bit depth                                : 16 bits
Compression mode                         : Lossy
Stream size                              : 261 MiB (15%)
Title                                    : www.club-hd.com > Inglés
Language                                 : English
Default                                  : No
Forced                                   : No

Menu
00:00:00.000                             : en:00:00:00.000
00:12:17.946                             : en:00:12:17.946
00:19:56.278                             : en:00:19:56.278
00:29:04.743                             : en:00:29:04.743
00:38:35.355                             : en:00:38:35.355
00:50:14.637                             : en:00:50:14.637







Enlaces de Mega y Google Drive solo disponibles para Miembros VIP

Compra tu Membresía VIP y apoya a Club-HD!

ATENCIÓN! Tenemos TODO el material de Club-HD disponible por Mega y Google Drive, enlaces 100% activos y online hasta la fecha

Llévate tus cuentas Mega PRO III gratis con tu membresía VIP!
Todos los posts vivos con links de Mega y Google Drive.
Todo el material de Club-HD desbloqueado y sin publicidad.

Click Aquí para más información.

Enlaces de Mega y Google Drive solo disponibles para Miembros VIP

Compra tu Membresía VIP y apoya a Club-HD!

ATENCIÓN! Tenemos TODO el material de Club-HD disponible por Mega y Google Drive, enlaces 100% activos y online hasta la fecha

Llévate tus cuentas Mega PRO III gratis con tu membresía VIP!
Todos los posts vivos con links de Mega y Google Drive.
Todo el material de Club-HD desbloqueado y sin publicidad.

Click Aquí para más información.

Para ver este contenido oculto, debes dar click en una de las siguientes reacciones : Like Like, Love Love, Haha Haha, Wow Wow, Sad Sad, Angry Angry

Para ver este contenido oculto, debes dar click en una de las siguientes reacciones : Like Like, Love Love, Haha Haha, Wow Wow, Sad Sad, Angry Angry
 
Última edición por un moderador:

Doctor Jason

New member
Súper Moderador
Registro
1 Sep 2012
Mensajes
2.398
Ubicación
Buenos Aires
Muchas Gracias Revolver!!!


Feliz Día del Niño!!! Para todos los integrantes y usuarios de este hermoso Club!!! Porque no importa la edad que tengas, todos tenemos un niño en algun rincón del corazón .
Por ejemplo mi niño interno se activa cuando veo una peli de terror que tanto me gustan, o cuando juego a la xbox con mi hijo, o cuando me compro un muñeco coleccionable de personajes de pelis de terror, o cuando...........no mejor páro acá, porque ahora que me doy cuenta mi niño interno se la pasa más afuera que adentro, soy un niño en un envase de adulto!!!l0l

Saludos para todos!!!bye
 

Usuarios Que Están Viendo Este Tema (Total: 1, Miembros: 0, Invitados: 1)

Quién Leyó Este Tema (Total Miembros: 3)

Arriba