Total Recall (1990) Mind-Bending Edition m-720p Dual Latino-Inglés [Subt. Esp-Ing] (Ciencia ficción. Acción)

Maestro Revolver

Well-known member
Miembro del Staff
Administrador
Registro
9 Ago 2012
Mensajes
3.569
Reacciones
59.366
Puntos
113

Reputation:









TÍTULO ORIGINAL: Total Recall
AÑO: 1990
DURACIÓN: 109 min.
PAÍS: USA
DIRECTOR: Paul Verhoeven
GUIÓN: Dan O'Bannon, Gary Goldman, Ronald Shusett (Relato: Philip K. Dick)
REPARTO: Arnold Schwarzenegger, Sharon Stone, Michael Ironside, Rachel Ticotin, Ronny Cox, Marshall Bell, Mel Johnson Jr., Michael Champion
PRODUCTORA: Carolco
GÉNERO: Ciencia ficción. Acción | Película de culto
http://www.imdb.com/title/tt0100802/

PREMIOS: 1990: Oscar: Mejores efectos visuales. 3 nominaciones
1990: Nominada Premios BAFTA: Mejores efectos especiales visuales






La Tierra, año 2084. Doug Quaid, un hombre que lleva una vida aparentemente tranquila, vive atormentado por una pesadilla que todas las noches lo transporta a Marte. Decide entonces recurrir al laboratorio de Recall, una empresa de vacaciones virtuales que le ofrece la oportunidad de materializar su sueño gracias a un fuerte alucinógeno, pero la droga hace aflorar a su memoria una estancia verdadera en Marte cuando era el más temido agente del cruel Coohagen.
























La pelicula NO tiene ninguna marca... solo colocamos el nombre de esta web en las capturas






Código:
General
Format                           : Matroska
Format version                   : Version 2
File size                        : 2.99 GiB
Duration                         : 1h 53mn
Overall bit rate                 : 3 770 Kbps
Movie name                       : www.club-hd.com
Encoded date                     : UTC 2012-11-11 22:40:24
Writing application              : mkvmerge v5.7.0 ('The Whirlwind') built on Jul  8 2012 20:08:51
Writing library                  : libebml v1.2.3 + libmatroska v1.3.0

Video
ID                               : 1
Format                           : AVC
Format/Info                      : Advanced Video Codec
Format profile                   : High@L4.1
Format settings, CABAC           : Yes
Format settings, ReFrames        : 5 frames
Codec ID                         : V_MPEG4/ISO/AVC
Duration                         : 1h 53mn
Bit rate                         : 3 000 Kbps
Width                            : 1 280 pixels
Height                           : 688 pixels
Display aspect ratio             : 1.860
Frame rate                       : 24.000 fps
Color space                      : YUV
Chroma subsampling               : 4:2:0
Bit depth                        : 8 bits
Scan type                        : Progressive
Bits/(Pixel*Frame)               : 0.142
Stream size                      : 2.32 GiB (78%)
Title                            : www.club-hd.com
Writing library                  : x264 core 125 r2200 999b753
Language                         : English
Default                          : Yes
Forced                           : No

Audio #1
ID                               : 2
Format                           : AC-3
Format/Info                      : Audio Coding 3
Mode extension                   : CM (complete main)
Codec ID                         : A_AC3
Duration                         : 1h 53mn
Bit rate mode                    : Constant
Bit rate                         : 256 Kbps
Channel(s)                       : 2 channels
Channel positions                : Front: L R
Sampling rate                    : 48.0 KHz
Bit depth                        : 16 bits
Compression mode                 : Lossy
Stream size                      : 208 MiB (7%)
Title                            : www.club-hd.com  >>  Latino
Language                         : Spanish
Default                          : Yes
Forced                           : No

Audio #2
ID                               : 3
Format                           : AC-3
Format/Info                      : Audio Coding 3
Mode extension                   : CM (complete main)
Codec ID                         : A_AC3
Duration                         : 1h 53mn
Bit rate mode                    : Constant
Bit rate                         : 512 Kbps
Channel(s)                       : 6 channels
Channel positions                : Front: L C R, Side: L R, LFE
Sampling rate                    : 48.0 KHz
Bit depth                        : 16 bits
Compression mode                 : Lossy
Stream size                      : 416 MiB (14%)
Title                            : www.club-hd.com  >>  Inglés
Language                         : English
Default                          : No
Forced                           : No

Text #1
ID                               : 4
Format                           : UTF-8
Codec ID                         : S_TEXT/UTF8
Codec ID/Info                    : UTF-8 Plain Text
Language                         : Spanish
Default                          : No
Forced                           : No

Text #2
ID                               : 5
Format                           : UTF-8
Codec ID                         : S_TEXT/UTF8
Codec ID/Info                    : UTF-8 Plain Text
Language                         : English
Default                          : No
Forced                           : No










Enlaces de Mega y Fireload solo disponibles para Miembros VIP

Compra tu Membresía VIP y apoya a Club-HD!

ATENCIÓN! Tenemos TODO el material de Club-HD disponible por Mega y Fireload, enlaces 100% activos y online hasta la fecha

Llévate tus cuentas Mega PRO II gratis con tu membresía VIP!
Todos los posts vivos con links de Mega y Fireload.
Todo el material de Club-HD desbloqueado y sin publicidad.

Click Aquí para más información.




Enlaces de Mega y Fireload solo disponibles para Miembros VIP

Compra tu Membresía VIP y apoya a Club-HD!

ATENCIÓN! Tenemos TODO el material de Club-HD disponible por Mega y Fireload, enlaces 100% activos y online hasta la fecha

Llévate tus cuentas Mega PRO II gratis con tu membresía VIP!
Todos los posts vivos con links de Mega y Fireload.
Todo el material de Club-HD desbloqueado y sin publicidad.

Click Aquí para más información.


Para ver este contenido oculto, debes dar click en una de las siguientes reacciones : Like Like, Love Love, Haha Haha, Wow Wow, Sad Sad, Angry Angry

 
Última edición:

manuelvxd

New member
Registro
30 Ago 2012
Mensajes
349
Reacciones
4
Puntos
0

Reputation:

el remake no fue de mi agrado

prefiero 1000% esta versión ya todo un clásico
 

Nosferatu

Well-known member
Súper Moderador
Registro
31 Ago 2012
Mensajes
2.275
Reacciones
1.362
Puntos
113
Edad
44
Ubicación
Welcome to Hell!!

Reputation:

:aplausos::aplausos: Nunca espere verla en HD. todo un clasico, y hoy tendre la oportunidad de ver a Schwarzenegger en accion.

GRACIAS R21! :LXR::LXR:
 

metalfer77

Well-known member
Registro
27 Ago 2012
Mensajes
1.243
Reacciones
287
Puntos
83
Edad
44
Ubicación
Puerto Deseado

Reputation:

Uuuuuuuuu!!!!!! otro GRAN GRAN Clásico!!!!!
Las vas a subir también en 1080p????
 

Usuarios Que Están Viendo Este Tema (Total: 1, Miembros: 0, Invitados: 1)

Arriba