Trance (2013) 1080p BDRip Dual Latino-Inglés [Subt. Esp] (Thriller)

Maestro Revolver

Well-known member
Miembro del Staff
Administrador
Registro
9 Ago 2012
Mensajes
3.567








TÍTULO ORIGINAL: Trance
AÑO: 2013
DURACIÓN: 101 min.
PAÍS: Reino Unido
DIRECTOR: Danny Boyle
GUIÓN: Joe Ahearne, John Hodge
REPARTO: James McAvoy, Vincent Cassel, Rosario Dawson, Tuppence Middleton, Danny Sapani, Wahab Sheikh, Lee Nicholas Harris, Ben Cura, Gioacchino Jim Cuffaro, Hamza Jeetooa
PRODUCTORA: Cloud Eight Films / Film4
GÉNERO: Thriller | Thriller psicológico. Robos & Atracos. Neo-noir
: http://www.imdb.com/title/tt1924429/?ref_=fn_al_tt_1






Simon (James McAvoy), un empleado de una casa de subastas, se asocia con una banda criminal para robar una valiosa obra de arte. Pero, tras recibir un golpe en la cabeza durante el atraco, descubre, al despertarse, que no recuerda dónde ha escondido el cuadro. Cuando ni las amenazas ni la tortura física logran arrancarle ninguna respuesta, el jefe de la banda (Vincent Cassel) contrata a una hipnoterapeuta (Rosario Dawson) para que le ayude a recordar.
























La pelicula NO tiene ninguna marca... solo colocamos el nombre de esta web en las capturas






Código:
General
Format                                   : Matroska
Format version                           : Version 2
File size                                : 8.42 GiB
Duration                                 : 1h 41mn
Overall bit rate                         : 11.9 Mbps
Movie name                               : www.club-hd.com
Encoded date                             : UTC 2013-07-08 17:08:44
Writing application                      : mkvmerge v5.7.0 ('The Whirlwind') built on Jul  8 2012 20:08:51
Writing library                          : libebml v1.2.3 + libmatroska v1.3.0

Video
ID                                       : 1
Format                                   : AVC
Format/Info                              : Advanced Video Codec
Format profile                           : High@L4.1
Format settings, CABAC                   : Yes
Format settings, ReFrames                : 5 frames
Codec ID                                 : V_MPEG4/ISO/AVC
Duration                                 : 1h 41mn
Bit rate                                 : 9 302 Kbps
Width                                    : 1 920 pixels
Height                                   : 800 pixels
Display aspect ratio                     : 2.40:1
Frame rate mode                          : Constant
Frame rate                               : 23.976 fps
Color space                              : YUV
Chroma subsampling                       : 4:2:0
Bit depth                                : 8 bits
Scan type                                : Progressive
Bits/(Pixel*Frame)                       : 0.253
Stream size                              : 6.41 GiB (76%)
Title                                    : www.club-hd.com
Writing library                          : x264 core 133 r2334 a3ac64b
Language                                 : English
Default                                  : Yes
Forced                                   : No

Audio #1
ID                                       : 2
Format                                   : AC-3
Format/Info                              : Audio Coding 3
Mode extension                           : CM (complete main)
Format settings, Endianness              : Big
Codec ID                                 : A_AC3
Duration                                 : 1h 41mn
Bit rate mode                            : Constant
Bit rate                                 : 448 Kbps
Channel(s)                               : 6 channels
Channel positions                        : Front: L C R, Side: L R, LFE
Sampling rate                            : 48.0 KHz
Bit depth                                : 16 bits
Compression mode                         : Lossy
Stream size                              : 325 MiB (4%)
Title                                    : www.club-hd.com  >>  Latino AC3 5.1
Language                                 : Spanish
Default                                  : Yes
Forced                                   : No

Audio #2
ID                                       : 3
Format                                   : AC-3
Format/Info                              : Audio Coding 3
Mode extension                           : CM (complete main)
Format settings, Endianness              : Big
Codec ID                                 : A_AC3
Duration                                 : 1h 41mn
Bit rate mode                            : Constant
Bit rate                                 : 640 Kbps
Channel(s)                               : 6 channels
Channel positions                        : Front: L C R, Side: L R, LFE
Sampling rate                            : 48.0 KHz
Bit depth                                : 16 bits
Compression mode                         : Lossy
Stream size                              : 464 MiB (5%)
Title                                    : www.club-hd.com  >>  Inglés AC3 5.1
Language                                 : English
Default                                  : No
Forced                                   : No

Audio #3
ID                                       : 4
Format                                   : DTS
Format/Info                              : Digital Theater Systems
Format profile                           : ES
Mode                                     : 16
Format settings, Endianness              : Big
Codec ID                                 : A_DTS
Duration                                 : 1h 41mn
Bit rate mode                            : Constant
Bit rate                                 : 1 509 Kbps
Channel(s)                               : 6 channels
Channel positions                        : Front: L C R, Side: L R, LFE
Sampling rate                            : 48.0 KHz
Bit depth                                : 24 bits
Compression mode                         : Lossy
Stream size                              : 1.07 GiB (13%)
Title                                    : www.club-hd.com  >>  Inglés DTS 5.1
Language                                 : English
Default                                  : No
Forced                                   : No

Text
ID                                       : 5
Format                                   : UTF-8
Codec ID                                 : S_TEXT/UTF8
Codec ID/Info                            : UTF-8 Plain Text
Language                                 : Spanish
Default                                  : No
Forced                                   : No

Menu
00:00:00.000                             : en:00:00:00.000
00:04:05.871                             : en:00:04:05.871
00:08:18.832                             : en:00:08:18.832
00:10:09.859                             : en:00:10:09.859
00:13:06.786                             : en:00:13:06.786
00:15:42.650                             : en:00:15:42.650
00:17:33.678                             : en:00:17:33.678
00:21:57.274                             : en:00:21:57.274
00:23:46.634                             : en:00:23:46.634
00:25:54.720                             : en:00:25:54.720
00:28:11.398                             : en:00:28:11.398
00:31:08.533                             : en:00:31:08.533
00:33:40.644                             : en:00:33:40.644
00:36:31.272                             : en:00:36:31.272
00:39:10.723                             : en:00:39:10.723
00:41:49.340                             : en:00:41:49.340
00:45:58.881                             : en:00:45:58.881
00:51:51.483                             : en:00:51:51.483
00:59:00.287                             : en:00:59:00.287
01:02:10.894                             : en:01:02:10.894
01:08:08.584                             : en:01:08:08.584
01:12:06.822                             : en:01:12:06.822
01:14:36.138                             : en:01:14:36.138
01:16:13.152                             : en:01:16:13.152
01:25:36.548                             : en:01:25:36.548
01:28:16.291                             : en:01:28:16.291
01:31:34.781                             : en:01:31:34.781
01:35:32.769                             : en:01:35:32.769








Enlaces de Mega y Google Drive solo disponibles para Miembros VIP

Compra tu Membresía VIP y apoya a Club-HD!

ATENCIÓN! Tenemos TODO el material de Club-HD disponible por Mega y Google Drive, enlaces 100% activos y online hasta la fecha

Llévate tus cuentas Mega PRO III gratis con tu membresía VIP!
Todos los posts vivos con links de Mega y Google Drive.
Todo el material de Club-HD desbloqueado y sin publicidad.

Click Aquí para más información.


Para ver este contenido oculto, debes dar click en una de las siguientes reacciones : Like Like, Love Love, Haha Haha, Wow Wow, Sad Sad, Angry Angry


Para ver este contenido oculto, debes dar click en una de las siguientes reacciones : Like Like, Love Love, Haha Haha, Wow Wow, Sad Sad, Angry Angry
 
Última edición por un moderador:

Nosferatu

Well-known member
Miembro del Staff
Súper Moderador
Miembro VIP
Registro
31 Ago 2012
Mensajes
2.275
Edad
45
Ubicación
Welcome to Hell!!
Muchas pero muchas gracias Master por tenernos siempre al dia con los estrenos.:aplausos::aplausos:

Gracias Monstruo R22!!!:aplausos::LXR::LXR:
 

Usuarios Que Están Viendo Este Tema (Total: 1, Miembros: 0, Invitados: 1)

Quién Leyó Este Tema (Total Miembros: 1)

Arriba