Turbo (2013) 1080p BDRip Dual Latino-Inglés [Subt. Esp] (Animación)

Maestro Revolver

Well-known member
Miembro del Staff
Administrador
Registro
9 Ago 2012
Mensajes
3.567








TÍTULO ORIGINAL: Turbo
AÑO: 2013
DURACIÓN: 96 min.
PAÍS: USA
DIRECTOR: David Soren
GUIÓN: Darren Lemke, David Soren, Robert D. Siegel
REPARTO: Animation
PRODUCTORA: Dreamworks Animation
GÉNERO: Animación. Comedia. Infantil | Coches / Automovilismo. Cine familiar. 3-D
: http://www.imdb.com/title/tt1860353/






Turbo es un caracol de jardín con un sueño imposible: convertirse en el caracol más rápido del mundo. Cuando un extraño accidente le da el poder de la súper-velocidad, Turbo intentará cumplir su sueño. Primero se hará amigo de una peculiar pandilla de caracoles callejeros tuneados y obsesionados con la velocidad, y allí Turbo aprenderá que nadie llega a tener éxito por sí solo. Así que coloca su corazón y su concha en la línea de salida dispuesto a ayudar a sus colegas a lograr sus sueños, antes de intentar alcanzar su sueño imposible: ganar las 500 millas de Indianápolis.
























La pelicula NO tiene ninguna marca... solo colocamos el nombre de esta web en las capturas






Código:
General
Format                                   : Matroska
Format version                           : Version 2
File size                                : 7.16 GiB
Duration                                 : 1h 35mn
Overall bit rate                         : 10.7 Mbps
Movie name                               : www.club-hd.com
Encoded date                             : UTC 2013-10-26 15:31:54
Writing application                      : mkvmerge v5.7.0 ('The Whirlwind') built on Jul  8 2012 20:08:51
Writing library                          : libebml v1.2.3 + libmatroska v1.3.0

Video
ID                                       : 1
Format                                   : AVC
Format/Info                              : Advanced Video Codec
Format profile                           : High@L4.1
Format settings, CABAC                   : Yes
Format settings, ReFrames                : 5 frames
Codec ID                                 : V_MPEG4/ISO/AVC
Duration                                 : 1h 35mn
Bit rate                                 : 7 968 Kbps
Width                                    : 1 920 pixels
Height                                   : 816 pixels
Display aspect ratio                     : 2.35:1
Frame rate mode                          : Constant
Frame rate                               : 23.976 fps
Color space                              : YUV
Chroma subsampling                       : 4:2:0
Bit depth                                : 8 bits
Scan type                                : Progressive
Bits/(Pixel*Frame)                       : 0.212
Stream size                              : 5.33 GiB (74%)
Title                                    : www.club-hd.com
Language                                 : English
Default                                  : Yes
Forced                                   : No

Audio #1
ID                                       : 2
Format                                   : AC-3
Format/Info                              : Audio Coding 3
Mode extension                           : CM (complete main)
Format settings, Endianness              : Big
Codec ID                                 : A_AC3
Duration                                 : 1h 35mn
Bit rate mode                            : Constant
Bit rate                                 : 384 Kbps
Channel(s)                               : 6 channels
Channel positions                        : Front: L C R, Side: L R, LFE
Sampling rate                            : 48.0 KHz
Bit depth                                : 16 bits
Compression mode                         : Lossy
Stream size                              : 263 MiB (4%)
Title                                    : www.club-hd.com  >>  Latino AC3 5.1
Language                                 : Spanish
Default                                  : Yes
Forced                                   : No

Audio #2
ID                                       : 3
Format                                   : AC-3
Format/Info                              : Audio Coding 3
Mode extension                           : CM (complete main)
Format settings, Endianness              : Big
Codec ID                                 : A_AC3
Duration                                 : 1h 35mn
Bit rate mode                            : Constant
Bit rate                                 : 640 Kbps
Channel(s)                               : 6 channels
Channel positions                        : Front: L C R, Side: L R, LFE
Sampling rate                            : 48.0 KHz
Bit depth                                : 16 bits
Compression mode                         : Lossy
Stream size                              : 438 MiB (6%)
Title                                    : www.club-hd.com  >>  Inglés AC3 5.1
Language                                 : English
Default                                  : No
Forced                                   : No

Audio #3
ID                                       : 4
Format                                   : DTS
Format/Info                              : Digital Theater Systems
Format profile                           : ES
Mode                                     : 16
Format settings, Endianness              : Big
Codec ID                                 : A_DTS
Duration                                 : 1h 35mn
Bit rate mode                            : Constant
Bit rate                                 : 1 509 Kbps
Channel(s)                               : 6 channels
Channel positions                        : Front: L C R, Side: L R, LFE
Sampling rate                            : 48.0 KHz
Bit depth                                : 24 bits
Compression mode                         : Lossy
Stream size                              : 1.01 GiB (14%)
Title                                    : www.club-hd.com  >>  Inglés DTS 5.1
Language                                 : English
Default                                  : No
Forced                                   : No

Text #1
ID                                       : 5
Format                                   : UTF-8
Codec ID                                 : S_TEXT/UTF8
Codec ID/Info                            : UTF-8 Plain Text
Title                                    : Forzados
Language                                 : Spanish
Default                                  : Yes
Forced                                   : No

Text #2
ID                                       : 6
Format                                   : UTF-8
Codec ID                                 : S_TEXT/UTF8
Codec ID/Info                            : UTF-8 Plain Text
Title                                    : Completos
Language                                 : Spanish
Default                                  : No
Forced                                   : No

Menu
00:00:00.000                             : en:00:00:00.000
00:03:29.626                             : en:00:03:29.626
00:06:39.858                             : en:00:06:39.858
00:08:34.222                             : en:00:08:34.222
00:10:13.863                             : en:00:10:13.863
00:13:25.096                             : en:00:13:25.096
00:17:15.785                             : en:00:17:15.785
00:21:53.354                             : en:00:21:53.354
00:25:42.708                             : en:00:25:42.708
00:28:24.494                             : en:00:28:24.494
00:30:17.899                             : en:00:30:17.899
00:34:20.892                             : en:00:34:20.892
00:38:20.340                             : en:00:38:20.340
00:40:45.109                             : en:00:40:45.109
00:44:40.219                             : en:00:44:40.219
00:47:40.941                             : en:00:47:40.941
00:49:29.925                             : en:00:49:29.925
00:53:28.956                             : en:00:53:28.956
00:57:00.751                             : en:00:57:00.751
00:59:38.825                             : en:00:59:38.825
01:02:05.972                             : en:01:02:05.972
01:05:50.780                             : en:01:05:50.780
01:08:07.166                             : en:01:08:07.166
01:13:08.801                             : en:01:13:08.801
01:16:26.791                             : en:01:16:26.791
01:19:48.450                             : en:01:19:48.450
01:23:26.126                             : en:01:23:26.126
01:26:29.726                             : en:01:26:29.726








Enlaces de Mega y Google Drive solo disponibles para Miembros VIP

Compra tu Membresía VIP y apoya a Club-HD!

ATENCIÓN! Tenemos TODO el material de Club-HD disponible por Mega y Google Drive, enlaces 100% activos y online hasta la fecha

Llévate tus cuentas Mega PRO III gratis con tu membresía VIP!
Todos los posts vivos con links de Mega y Google Drive.
Todo el material de Club-HD desbloqueado y sin publicidad.

Click Aquí para más información.



Para ver este contenido oculto, debes dar click en una de las siguientes reacciones : Like Like, Love Love, Haha Haha, Wow Wow, Sad Sad, Angry Angry

 
Última edición por un moderador:

Usuarios Que Están Viendo Este Tema (Total: 1, Miembros: 0, Invitados: 1)

Quién Leyó Este Tema (Total Miembros: 2)

Arriba