U2 360° At the Rose Bowl (2010) 720p [AC3 5.1] [DTS] (Concierto)

Maestro Revolver

Well-known member
Miembro del Staff
Administrador
Registro
9 Ago 2012
Mensajes
3.569
Reacciones
59.350
Puntos
113

Reputation:









Interprete: Bono (voz y guitarra), The Edge (guitarra, teclado y voz), Adam Clayton (bajo), y Larry Mullen, Jr. (batería y percusión)
Artista: U2
Titulo: U2 360° at the Rose Bowl
Año: 2010
Genero: Electronic / Rock




U2 360° at the Rose Bowl es un concierto de la banda de rock U2. Fue grabado el 25 de octubre durante la gira U2 360° Tour , en The Rose Bowl en Pasadena, California.



Track List:

1. Get On Your Boots 3:49
2. Magnificent 5:34
3. Mysterious Ways 4:36
4. Beautiful Day 7:19
5. I Still Haven't Found What I'm Looking For 5:37
6. Stuck In a Moment You Can't Get Out Of 4:39
7. No Line On The Horizon 4:17
8. Elevation 3:38
9. In A Little While 3:59
10. Unknown Caller 5:53
11. Until The End Of The World 4:55
12. The Unforgettable Fire 4:45
13. City Of Blinding Lights 5:19
14. Vertigo 4:23
15. I'll Go Crazy If I Don't Crazy Tonight 5:25
16. Sunday Bloody Sunday (Intro) 0:55
17. Sunday Bloody Sunday 5:39
18. Walk On (Intro) 1:01
19. Walk On 6:37
20. MLK 1:55
21. One 5:03
22. Where The Streets Have No Name 6:58
23. Ultra Violet (Light My Way) 5:14
24. With Or Without You 5:36
25. Moment Of Surrender 7:38


































Código:
Format                                   : Matroska
Format version                           : Version 2
File size                                : 7.13 GiB
Duration                                 : 2h 9mn
Overall bit rate                         : 7 890 Kbps
Movie name                               : www.club-hd.com
Encoded date                             : UTC 2012-06-19 05:15:26
Writing application                      : mkvmerge v5.2.1 ('A Far Off Place') built on Jan  2 2012 23:21:10
Writing library                          : libebml v1.2.3 + libmatroska v1.3.0

Video
ID                                       : 1
Format                                   : AVC
Format/Info                              : Advanced Video Codec
Format profile                           : High@L4.1
Format settings, CABAC                   : Yes
Format settings, ReFrames                : 9 frames
Muxing mode                              : Header stripping
Codec ID                                 : V_MPEG4/ISO/AVC
Duration                                 : 2h 9mn
Bit rate                                 : 5 742 Kbps
Width                                    : 1 280 pixels
Height                                   : 720 pixels
Display aspect ratio                     : 16:9
Frame rate                               : 29.970 fps
Color space                              : YUV
Chroma subsampling                       : 4:2:0
Bit depth                                : 8 bits
Scan type                                : Progressive
Bits/(Pixel*Frame)                       : 0.208
Stream size                              : 5.05 GiB (71%)
Title                                    : www.club-hd.com
Writing library                          : x264 core 80 r1376M 3feaec2
Language                                 : English
Default                                  : Yes
Forced                                   : No

Audio #1
ID                                       : 2
Format                                   : AC-3
Format/Info                              : Audio Coding 3
Mode extension                           : CM (complete main)
Format settings, Endianness              : Big
Muxing mode                              : Header stripping
Codec ID                                 : A_AC3
Duration                                 : 2h 9mn
Bit rate mode                            : Constant
Bit rate                                 : 640 Kbps
Channel(s)                               : 6 channels
Channel positions                        : Front: L C R, Side: L R, LFE
Sampling rate                            : 48.0 KHz
Bit depth                                : 16 bits
Compression mode                         : Lossy
Stream size                              : 592 MiB (8%)
Title                                    : www.club-hd.com  >>  AC3 5.1  ,  640 Kbps
Language                                 : English
Default                                  : Yes
Forced                                   : No

Audio #2
ID                                       : 3
Format                                   : DTS
Format/Info                              : Digital Theater Systems
Muxing mode                              : Header stripping
Codec ID                                 : A_DTS
Duration                                 : 2h 9mn
Bit rate mode                            : Constant
Bit rate                                 : 1 510 Kbps
Channel(s)                               : 6 channels
Channel positions                        : Front: L C R, Side: L R, LFE
Sampling rate                            : 48.0 KHz
Bit depth                                : 24 bits
Compression mode                         : Lossy
Stream size                              : 1.36 GiB (19%)
Title                                    : www.club-hd.com  >>  DTS 5.1 ,  1 510 Kbps
Language                                 : English
Default                                  : No
Forced                                   : No










Enlaces de Mega y Fireload solo disponibles para Miembros VIP

Compra tu Membresía VIP y apoya a Club-HD!

ATENCIÓN! Tenemos TODO el material de Club-HD disponible por Mega y Fireload, enlaces 100% activos y online hasta la fecha

Llévate tus cuentas Mega PRO II gratis con tu membresía VIP!
Todos los posts vivos con links de Mega y Fireload.
Todo el material de Club-HD desbloqueado y sin publicidad.

Click Aquí para más información.




Enlaces de Mega y Fireload solo disponibles para Miembros VIP

Compra tu Membresía VIP y apoya a Club-HD!

ATENCIÓN! Tenemos TODO el material de Club-HD disponible por Mega y Fireload, enlaces 100% activos y online hasta la fecha

Llévate tus cuentas Mega PRO II gratis con tu membresía VIP!
Todos los posts vivos con links de Mega y Fireload.
Todo el material de Club-HD desbloqueado y sin publicidad.

Click Aquí para más información.



Enlaces de Mega y Fireload solo disponibles para Miembros VIP

Compra tu Membresía VIP y apoya a Club-HD!

ATENCIÓN! Tenemos TODO el material de Club-HD disponible por Mega y Fireload, enlaces 100% activos y online hasta la fecha

Llévate tus cuentas Mega PRO II gratis con tu membresía VIP!
Todos los posts vivos con links de Mega y Fireload.
Todo el material de Club-HD desbloqueado y sin publicidad.

Click Aquí para más información.


Para ver este contenido oculto, debes dar click en una de las siguientes reacciones : Like Like, Love Love, Haha Haha, Wow Wow, Sad Sad, Angry Angry



Para ver este contenido oculto, debes dar click en una de las siguientes reacciones : Like Like, Love Love, Haha Haha, Wow Wow, Sad Sad, Angry Angry
 
Última edición:

VincentVega

New member
Registro
27 Ago 2012
Mensajes
404
Reacciones
162
Puntos
0
Edad
32
Ubicación
Valinor

Reputation:

Dicen que éste tour fue un espectáculo visual impresionante. No queda otra que bajarlo! Gracias
 

kirk

Member
Registro
29 Ago 2012
Mensajes
140
Reacciones
3
Puntos
18

Reputation:

Muchas Gracias por tremendo aporte...

Es uno de mis favoritos de U2.,,

:dplgar:
 

Usuarios Que Están Viendo Este Tema (Total: 1, Miembros: 0, Invitados: 1)

Arriba