Ultramarines: A Warhammer 40,000 Movie (2010) 720p BDRip Dual Latino-Inglés [Subt. Esp] (Animación)

Maestro Revolver

Well-known member
Miembro del Staff
Administrador
Registro
9 Ago 2012
Mensajes
3.569
Reacciones
59.471
Puntos
113

Reputation:









TÍTULO ORIGINAL: Ultramarines: A Warhammer 40,000 Movie
AÑO: 2010
DURACIÓN: 70 min.
PAÍS: Reino Unido
DIRECTOR: Martyn Pick
GUIÓN: Dan Abnett
REPARTO: Animation
PRODUCTORA: Codex Pictures / Good Story Productions / POP6
GÉNERO: Animación. Ciencia ficción | Futuro postapocalíptico. Videojuego
: http://www.imdb.com/title/tt1679332/






Un escuadrón de Ultramarines responden a una llamada de auxilio de un mundo imperial del santuario. Una compañía completa de Puños Imperiales estaba estacionado allí, pero no hay una respuesta de ellos. El equipo investiga para averiguar lo que ha sucedido allí.
En un lóbrego futuro, la guerra es la única opción? adaptación del universo Warhammer 40,000.
























La pelicula NO tiene ninguna marca... solo colocamos el nombre de esta web en las capturas






Código:
General
Format                                   : Matroska
Format version                           : Version 2
File size                                : 3.50 GiB
Duration                                 : 1h 16mn
Overall bit rate                         : 6 534 Kbps
Movie name                               : www.club-hd.com
Encoded date                             : UTC 2013-03-07 15:07:25
Writing application                      : mkvmerge v5.7.0 ('The Whirlwind') built on Jul  8 2012 20:08:51
Writing library                          : libebml v1.2.3 + libmatroska v1.3.0
Attachment                               : Yes

Video
ID                                       : 1
Format                                   : AVC
Format/Info                              : Advanced Video Codec
Format profile                           : High@L4.1
Format settings, CABAC                   : Yes
Format settings, ReFrames                : 5 frames
Codec ID                                 : V_MPEG4/ISO/AVC
Duration                                 : 1h 16mn
Bit rate                                 : 5 649 Kbps
Width                                    : 1 280 pixels
Height                                   : 720 pixels
Display aspect ratio                     : 16:9
Frame rate mode                          : Constant
Frame rate                               : 24.000 fps
Color space                              : YUV
Chroma subsampling                       : 4:2:0
Bit depth                                : 8 bits
Scan type                                : Progressive
Bits/(Pixel*Frame)                       : 0.255
Stream size                              : 2.95 GiB (84%)
Title                                    : www.club-hd.com
Writing library                          : x264 core 129 r2230 1cffe9f
Language                                 : English
Default                                  : Yes
Forced                                   : No

Audio #1
ID                                       : 2
Format                                   : AC-3
Format/Info                              : Audio Coding 3
Mode extension                           : CM (complete main)
Format settings, Endianness              : Big
Codec ID                                 : A_AC3
Duration                                 : 1h 16mn
Bit rate mode                            : Constant
Bit rate                                 : 448 Kbps
Channel(s)                               : 6 channels
Channel positions                        : Front: L C R, Side: L R, LFE
Sampling rate                            : 48.0 KHz
Bit depth                                : 16 bits
Compression mode                         : Lossy
Stream size                              : 246 MiB (7%)
Title                                    : www.club-hd.com  >>  Latino
Language                                 : Spanish
Default                                  : Yes
Forced                                   : No

Audio #2
ID                                       : 3
Format                                   : AC-3
Format/Info                              : Audio Coding 3
Mode extension                           : CM (complete main)
Format settings, Endianness              : Big
Codec ID                                 : A_AC3
Duration                                 : 1h 16mn
Bit rate mode                            : Constant
Bit rate                                 : 448 Kbps
Channel(s)                               : 6 channels
Channel positions                        : Front: L C R, Side: L R, LFE
Sampling rate                            : 48.0 KHz
Bit depth                                : 16 bits
Compression mode                         : Lossy
Stream size                              : 246 MiB (7%)
Title                                    : www.club-hd.com  >>  Inglés
Language                                 : English
Default                                  : No
Forced                                   : No

Text
ID                                       : 4
Format                                   : UTF-8
Codec ID                                 : S_TEXT/UTF8
Codec ID/Info                            : UTF-8 Plain Text
Language                                 : Spanish
Default                                  : No
Forced                                   : No

Menu
00:00:00.000                             : en:00:00:00.000
00:02:09.500                             : en:00:02:09.500
00:09:43.542                             : en:00:09:43.542
00:14:08.500                             : en:00:14:08.500
00:19:07.625                             : en:00:19:07.625
00:21:35.292                             : en:00:21:35.292
00:26:10.417                             : en:00:26:10.417
00:29:44.042                             : en:00:29:44.042
00:35:45.875                             : en:00:35:45.875
00:40:49.958                             : en:00:40:49.958
00:44:56.458                             : en:00:44:56.458
00:49:33.750                             : en:00:49:33.750
00:53:24.125                             : en:00:53:24.125
00:57:05.708                             : en:00:57:05.708
01:02:33.292                             : en:01:02:33.292
01:07:02.542                             : en:01:07:02.542










Enlaces de Mega y Fireload solo disponibles para Miembros VIP

Compra tu Membresía VIP y apoya a Club-HD!

ATENCIÓN! Tenemos TODO el material de Club-HD disponible por Mega y Fireload, enlaces 100% activos y online hasta la fecha

Llévate tus cuentas Mega PRO II gratis con tu membresía VIP!
Todos los posts vivos con links de Mega y Fireload.
Todo el material de Club-HD desbloqueado y sin publicidad.

Click Aquí para más información.




Enlaces de Mega y Fireload solo disponibles para Miembros VIP

Compra tu Membresía VIP y apoya a Club-HD!

ATENCIÓN! Tenemos TODO el material de Club-HD disponible por Mega y Fireload, enlaces 100% activos y online hasta la fecha

Llévate tus cuentas Mega PRO II gratis con tu membresía VIP!
Todos los posts vivos con links de Mega y Fireload.
Todo el material de Club-HD desbloqueado y sin publicidad.

Click Aquí para más información.



Para ver este contenido oculto, debes dar click en una de las siguientes reacciones : Like Like, Love Love, Haha Haha, Wow Wow, Sad Sad, Angry Angry

 
Última edición:

zacygal

Well-known member
Registro
3 Sep 2012
Mensajes
1.515
Reacciones
1.536
Puntos
113
Edad
49

Reputation:

ni que decir que se ve buena porque toas las películas, que nos traes stan fuera de serie gracias ...
 

Cyberhack

Active member
Registro
28 Ago 2012
Mensajes
746
Reacciones
36
Puntos
28

Reputation:

de lujo.. muchisimas gracias por compartir.
 

DoomsDay Elite

Well-known member
Registro
5 Sep 2012
Mensajes
1.225
Reacciones
1.101
Puntos
113

Reputation:

no hace mucho jugué el juego asi que la bajare puesto que el juego me gusto espero que la pelicula también como siempre mil gracias revolver y lo dejare de escribir hasta que ya no se pueda mas
 

Usuarios Que Están Viendo Este Tema (Total: 1, Miembros: 0, Invitados: 1)

Arriba