Universal Soldier: Day of Reckoning (2012) 720p HDRip Audio Inglés [Subt. Esp] (Acción. Ciencia ficción)

Maestro Revolver

Administrador
Registro
9 Ago 2012
Mensajes
3.157
Reacciones (ptje)
55.208


Universal-Soldier-Day-Of-Reckoning.jpg




FICHA_TECNICA.png


TÍTULO ORIGINAL: Universal Soldier: Day of Reckoning (A New Dimension)
AÑO: 2012
DURACIÓN: 114 min.
PAÍS: USA
DIRECTOR: John Hyams
GUIÓN: John Hyams
REPARTO: Jean-Claude Van Damme, Dolph Lundgren, Scott Adkins, Rus Blackwell, Mariah Bonner, Kristopher Van Varenberg, Andrei Arlovski, Audrey P. Scott
PRODUCTORA: Foresight Unlimited
GÉNERO: Acción. Ciencia ficción | Secuela. 3-D
imdb-logo.png
http://www.imdb.com/title/tt1659343/




SINOPSIS.png


En ‘Universal Soldier: Day of Reckoning’,el Sargento Scott liderará una secta de soldados que dirigen un nuevo orden gubernamental con aspiraciones de dominación mundial.




TRAILER.png






CAPTURAS.png


1.jpg


2.jpg


3.jpg


4.jpg


5.jpg


6.jpg


La pelicula NO tiene ninguna marca... solo colocamos el nombre de esta web en las capturas




DATOS_TECNICOS.png


Código:
General
Format                           : Matroska
Format version                   : Version 2
File size                        : 2.55 GiB
Duration                         : 1h 53mn
Overall bit rate                 : 3 222 Kbps
Movie name                       : www.club-hd.com
Encoded date                     : UTC 2012-10-30 00:11:49
Writing application              : mkvmerge v5.7.0 ('The Whirlwind') built on Jul  8 2012 20:08:51
Writing library                  : libebml v1.2.3 + libmatroska v1.3.0

Video
ID                               : 1
Format                           : AVC
Format/Info                      : Advanced Video Codec
Format profile                   : [email protected]
Format settings, CABAC           : Yes
Format settings, ReFrames        : 9 frames
Codec ID                         : V_MPEG4/ISO/AVC
Duration                         : 1h 53mn
Bit rate                         : 2 966 Kbps
Width                            : 1 280 pixels
Height                           : 528 pixels
Display aspect ratio             : 2.40:1
Frame rate                       : 23.976 fps
Color space                      : YUV
Chroma subsampling               : 4:2:0
Bit depth                        : 8 bits
Scan type                        : Progressive
Bits/(Pixel*Frame)               : 0.183
Stream size                      : 2.35 GiB (92%)
Title                            : www.club-hd.com
Writing library                  : x264 core 68 r1195bm 5d75a9b
Language                         : English
Default                          : Yes
Forced                           : No

Audio
ID                               : 2
Format                           : AC-3
Format/Info                      : Audio Coding 3
Mode extension                   : CM (complete main)
Codec ID                         : A_AC3
Duration                         : 1h 53mn
Bit rate mode                    : Constant
Bit rate                         : 192 Kbps
Channel(s)                       : 2 channels
Channel positions                : Front: L R
Sampling rate                    : 48.0 KHz
Bit depth                        : 16 bits
Compression mode                 : Lossy
Stream size                      : 156 MiB (6%)
Title                            : www.club-hd.com
Language                         : English
Default                          : Yes
Forced                           : No

Text
ID                               : 3
Format                           : UTF-8
Codec ID                         : S_TEXT/UTF8
Codec ID/Info                    : UTF-8 Plain Text
Language                         : Spanish
Default                          : Yes
Forced                           : No




Descarga.png



google-drive-vip.png


Tenemos TODO el material de Club-HD disponible por Mega, enlaces 100% activos y online hasta la fecha

Llévate tus cuentas Mega PRO III gratis con tu membresía VIP!
Todos los posts vivos con links de Mega.
Todo el material de Club-HD desbloqueado y sin publicidad.

Obtén más información sobre nuestras Membresías VIP




MEGA.jpg

Tenemos TODO el material de Club-HD disponible por Mega, enlaces 100% activos y online hasta la fecha

Llévate tus cuentas Mega PRO III gratis con tu membresía VIP!
Todos los posts vivos con links de Mega.
Todo el material de Club-HD desbloqueado y sin publicidad.

Obtén más información sobre nuestras Membresías VIP



1FICHIER-VIP.png

Tenemos TODO el material de Club-HD disponible por Mega, enlaces 100% activos y online hasta la fecha

Llévate tus cuentas Mega PRO III gratis con tu membresía VIP!
Todos los posts vivos con links de Mega.
Todo el material de Club-HD desbloqueado y sin publicidad.

Obtén más información sobre nuestras Membresías VIP


UPLOADED.TO_BANNER.png

Para ver este contenido oculto, debes dar click en el botón"Like", o cualquiera de las otras reacciones:

Me Gusta Me Gusta, Me Encanta Me Encanta, Jaja Jaja, Wow Wow, Triste Triste, Molesto Molesto


OPENLOAD.png

Para ver este contenido oculto, debes dar click en el botón"Like", o cualquiera de las otras reacciones:

Me Gusta Me Gusta, Me Encanta Me Encanta, Jaja Jaja, Wow Wow, Triste Triste, Molesto Molesto

 
Última edición:
gracias revolver esperemos que luego que salga el bluray lo postees en 720p
 
Como siempre nos sorprendes amigo, esta no me la llevo pero gracias de todas formas :D
 
Me la llevo...me la llevo...me la llevo dance3 d4nce2

Se agradece Sensei! victory
 
Uy! excelente maestro, otro estreno y con estas dos leyendas.:aplausos:

GRACIAS
BLOG%2520ROSATTO%2520001.jpg
21.:aplausos:
 
Volver