V/H/S/2 (2013) 720p BDRip Audio Inglés [Subt. Esp] (Terror)

Maestro Revolver

Miembro del Staff
Administrador
Registro
9 Ago 2012
Mensajes
3.157








TÍTULO ORIGINAL: S-V/H/S (S-VHS) - V/H/S 2
AÑO: 2013
DURACIÓN: 96 min.
PAÍS: USA
DIRECTOR: Simon Barrett, Adam Wingard, Eduardo Sánchez, Gregg Hale, Gareth Evans, Timo Tjahjanto, Jason Eisener
GUIÓN: Simon Barrett, Jamie Nash, Gareth Evans, John Davies, Jason Eisen, Timo Tjahjanto
REPARTO: Kelsy Abbott, L.C. Holt, Hannah Al Rashid, Fachry Albar, Oka Antara, Devon Brookshire, Samantha Gracie, Hannah Hughes, Kevin Hunt, John Karyus, Epy Kusnandar, Lawrence Michael Levine, Carly Robell, Mindy Robinson, Jay Saunders, Jeremie Saunders, Andrew Suleiman, Adam Wingard, John T. Woods
PRODUCTORA: Coproducción USA-Canadá-Indonesia; Pictureshow Productions
GÉNERO: Terror. Thriller | Metraje encontrado. Fantasmas. Zombis. Sectas. Extraterrestres. Película de episodios. Cine independiente USA
: http://www.imdb.com/title/tt2450186/






Secuela de V/H/S (2012). Buscando a un estudiante desaparecido, dos investigadores privados irrumpen en su casa y encuentran una colección de cintas VHS. Cuando ven los horribles contenidos cada casete, se dan cuenta que puede haber motivos oscuros detrás de la desaparición del estudiante.
























La pelicula NO tiene ninguna marca... solo colocamos el nombre de esta web en las capturas






Código:
General
Format                                   : Matroska
Format version                           : Version 2
File size                                : 3.66 GiB
Duration                                 : 1h 35mn
Overall bit rate                         : 5 475 Kbps
Movie name                               : www.club-hd.com
Encoded date                             : UTC 2013-09-22 18:49:38
Writing application                      : mkvmerge v5.7.0 ('The Whirlwind') built on Jul  8 2012 20:08:51
Writing library                          : libebml v1.2.3 + libmatroska v1.3.0

Video
ID                                       : 1
Format                                   : AVC
Format/Info                              : Advanced Video Codec
Format profile                           : High@L4.1
Format settings, CABAC                   : Yes
Format settings, ReFrames                : 5 frames
Codec ID                                 : V_MPEG4/ISO/AVC
Duration                                 : 1h 35mn
Bit rate                                 : 5 025 Kbps
Width                                    : 1 280 pixels
Height                                   : 720 pixels
Display aspect ratio                     : 16:9
Frame rate mode                          : Constant
Frame rate                               : 23.976 fps
Color space                              : YUV
Chroma subsampling                       : 4:2:0
Bit depth                                : 8 bits
Scan type                                : Progressive
Bits/(Pixel*Frame)                       : 0.227
Stream size                              : 3.29 GiB (90%)
Title                                    : X264
Writing library                          : x264 core 133 r2334 a3ac64b
Language                                 : English
Default                                  : Yes
Forced                                   : No

Audio
ID                                       : 2
Format                                   : AC-3
Format/Info                              : Audio Coding 3
Mode extension                           : CM (complete main)
Format settings, Endianness              : Big
Codec ID                                 : A_AC3
Duration                                 : 1h 35mn
Bit rate mode                            : Constant
Bit rate                                 : 448 Kbps
Channel(s)                               : 6 channels
Channel positions                        : Front: L C R, Side: L R, LFE
Sampling rate                            : 48.0 KHz
Bit depth                                : 16 bits
Compression mode                         : Lossy
Stream size                              : 307 MiB (8%)
Language                                 : English
Default                                  : Yes
Forced                                   : No

Text
ID                                       : 3
Format                                   : UTF-8
Codec ID                                 : S_TEXT/UTF8
Codec ID/Info                            : UTF-8 Plain Text
Language                                 : Spanish
Default                                  : Yes
Forced                                   : No

Menu
00:00:00.000                             : en:00:00:00.000
00:08:05.402                             : en:00:08:05.402
00:16:30.531                             : en:00:16:30.531
00:25:11.927                             : en:00:25:11.927
00:26:44.353                             : en:00:26:44.353
00:31:51.118                             : en:00:31:51.118
00:40:11.451                             : en:00:40:11.451
00:41:53.261                             : en:00:41:53.261
00:50:08.380                             : en:00:50:08.380
01:00:18.031                             : en:01:00:18.031
01:04:38.917                             : en:01:04:38.917
01:12:19.168                             : en:01:12:19.168
01:13:43.044                             : en:01:13:43.044
01:18:27.244                             : en:01:18:27.244
01:26:57.671                             : en:01:26:57.671
01:32:13.737                             : en:01:32:13.737








Enlaces de Mega y Google Drive solo disponibles para Miembros VIP

Compra tu Membresía VIP y apoya a Club-HD!

ATENCIÓN! Tenemos TODO el material de Club-HD disponible por Mega y Google Drive, enlaces 100% activos y online hasta la fecha

Llévate tus cuentas Mega PRO III gratis con tu membresía VIP!
Todos los posts vivos con links de Mega y Google Drive.
Todo el material de Club-HD desbloqueado y sin publicidad.

Click Aquí para más información.


Para ver este contenido oculto, debes dar click en una de las siguientes reacciones : Like Like, Love Love, Haha Haha, Wow Wow, Sad Sad, Angry Angry



 
Última edición por un moderador:

Mixman Kempes

Miembro VIP
Registro
28 Ago 2012
Mensajes
840
vamos por la segunda parte para espantarnos jajaja bueno ya solo los payasos espantan jajajaja, saludos a mis amigos del chlub-hd
 

Usuarios Que Están Viendo Este Tema (Total: 1, Miembros: 0, Invitados: 1)

Quién Leyó Este Tema (Total Miembros: 3)

Arriba