Valkyrie (2008) 720p BDRip Dual Latino-Inglés [Subt. Esp] (Acción. Bélico)

Maestro Revolver

Well-known member
Miembro del Staff
Administrador
Registro
9 Ago 2012
Mensajes
3.567








TÍTULO ORIGINAL: Valkyrie
AÑO: 2008
DURACIÓN: 120 min.
PAÍS: USA
DIRECTOR: Bryan Singer
GUIÓN: Christopher McQuarrie, Nathan Alexander
REPARTO: Tom Cruise, Kenneth Branagh, Bill Nighy, Tom Wilkinson, Terence Stamp, Eddie Izzard, Carice van Houten, Thomas Kretschmann, Tom Hollander, Kevin McNally, Christian Berkel, Jamie Parker, David Bamber, David Schofield, Kenneth Cranham, Danny Webb, Chris Larkin, Halina Reijn, Harvey Friedman, Ian McNeice, Bernard Hill
PRODUCTORA: Coproducción USA-Alemania; United Artists / Bad Hat Harry Productions / Studio Babelsberg
GÉNERO: Acción. Bélico. Thriller | Histórico. II Guerra Mundial. Nazismo
: http://www.imdb.com/title/tt0985699/


PREMIOS: 2008: Saturn Awards: 7 nominaciones incluyendo Película de Acción/Thriller, Director, Actor.
2008: Sociedad de Efectos Visuales: Nominada a Mejores Efectos Visuales de Apoyo
2008: BMI Film & TV Awards: Mejor Banda Sonora






Gravemente herido en combate, el Coronel Claus von Stauffenberg (Cruise), un aristócrata alemán, regresa de África y, tras unirse a la resistencia alemana, se convierte en el cerebro de la Operación Valkiria, cuyo objetivo era derrocar el régimen nazi y acabar con la guerra eliminando previamente a Hitler. El atentado, que fracasó por diversas circunstancias, consistió en la colocación de una bomba en el búnker del Fhürer (1944). El plan preveía además la creación de un gobierno en la sombra que se haría cargo de Alemania tras la muerte del dictador.




























La pelicula NO tiene ninguna marca... solo colocamos el nombre de esta web en las capturas






Código:
General
Format                                   : Matroska
Format version                           : Version 2
File size                                : 3.17 GiB
Duration                                 : 2h 0mn
Overall bit rate                         : 3 775 Kbps
Movie name                               : www.club-hd.com
Encoded date                             : UTC 2013-09-24 00:32:14
Writing application                      : mkvmerge v5.7.0 ('The Whirlwind') built on Jul  8 2012 20:08:51
Writing library                          : libebml v1.2.3 + libmatroska v1.3.0

Video
ID                                       : 1
Format                                   : AVC
Format/Info                              : Advanced Video Codec
Format profile                           : High@L4.1
Format settings, CABAC                   : Yes
Format settings, ReFrames                : 9 frames
Codec ID                                 : V_MPEG4/ISO/AVC
Duration                                 : 2h 0mn
Bit rate                                 : 2 690 Kbps
Width                                    : 1 280 pixels
Height                                   : 690 pixels
Display aspect ratio                     : 1.85:1
Frame rate mode                          : Constant
Frame rate                               : 23.976 fps
Color space                              : YUV
Chroma subsampling                       : 4:2:0
Bit depth                                : 8 bits
Scan type                                : Progressive
Bits/(Pixel*Frame)                       : 0.127
Stream size                              : 2.20 GiB (69%)
Title                                    : www.club-hd.com
Writing library                          : x264 core 128 r2216 198a7ea
Language                                 : English
Default                                  : Yes
Forced                                   : No

Audio #1
ID                                       : 2
Format                                   : AC-3
Format/Info                              : Audio Coding 3
Mode extension                           : CM (complete main)
Format settings, Endianness              : Big
Codec ID                                 : A_AC3
Duration                                 : 2h 0mn
Bit rate mode                            : Constant
Bit rate                                 : 448 Kbps
Channel(s)                               : 6 channels
Channel positions                        : Front: L C R, Side: L R, LFE
Sampling rate                            : 48.0 KHz
Bit depth                                : 16 bits
Compression mode                         : Lossy
Stream size                              : 386 MiB (12%)
Title                                    : www.club-hd.com  >>  Latino
Language                                 : Spanish
Default                                  : Yes
Forced                                   : No

Audio #2
ID                                       : 3
Format                                   : AC-3
Format/Info                              : Audio Coding 3
Mode extension                           : CM (complete main)
Format settings, Endianness              : Big
Codec ID                                 : A_AC3
Duration                                 : 2h 0mn
Bit rate mode                            : Constant
Bit rate                                 : 640 Kbps
Channel(s)                               : 6 channels
Channel positions                        : Front: L C R, Side: L R, LFE
Sampling rate                            : 48.0 KHz
Bit depth                                : 16 bits
Compression mode                         : Lossy
Stream size                              : 551 MiB (17%)
Title                                    : www.club-hd.com  >>  Inglés
Language                                 : English
Default                                  : No
Forced                                   : No

Text #1
ID                                       : 4
Format                                   : UTF-8
Codec ID                                 : S_TEXT/UTF8
Codec ID/Info                            : UTF-8 Plain Text
Title                                    : Forzados
Language                                 : Spanish
Default                                  : Yes
Forced                                   : No

Text #2
ID                                       : 5
Format                                   : UTF-8
Codec ID                                 : S_TEXT/UTF8
Codec ID/Info                            : UTF-8 Plain Text
Title                                    : Completos
Language                                 : Spanish
Default                                  : No
Forced                                   : No

Menu
00:00:00.000                             : en:Chapter 1
00:03:16.405                             : en:Chapter 2
00:06:21.715                             : en:Chapter 3
00:11:05.498                             : en:Chapter 4
00:14:55.978                             : en:Chapter 5
00:17:48.901                             : en:Chapter 6
00:20:43.909                             : en:Chapter 7
00:22:58.460                             : en:Chapter 8
00:26:04.021                             : en:Chapter 9
00:29:52.624                             : en:Chapter 10
00:32:15.851                             : en:Chapter 11
00:34:21.142                             : en:Chapter 12
00:36:35.193                             : en:Chapter 13
00:42:32.341                             : en:Chapter 14
00:46:07.723                             : en:Chapter 15
00:48:07.134                             : en:Chapter 16
00:51:17.449                             : en:Chapter 17
00:55:05.969                             : en:Chapter 18
00:58:26.878                             : en:Chapter 19
00:59:35.155                             : en:Chapter 20
01:02:06.264                             : en:Chapter 21
01:08:22.890                             : en:Chapter 22
01:11:03.718                             : en:Chapter 23
01:16:05.019                             : en:Chapter 24
01:20:29.742                             : en:Chapter 25
01:23:05.397                             : en:Chapter 26
01:27:23.113                             : en:Chapter 27
01:30:22.959                             : en:Chapter 28
01:34:41.551                             : en:Chapter 29
01:37:41.272                             : en:Chapter 30
01:43:58.482                             : en:Chapter 31
01:50:11.688                             : en:Chapter 32








Enlaces de Mega y Google Drive solo disponibles para Miembros VIP

Compra tu Membresía VIP y apoya a Club-HD!

ATENCIÓN! Tenemos TODO el material de Club-HD disponible por Mega y Google Drive, enlaces 100% activos y online hasta la fecha

Llévate tus cuentas Mega PRO III gratis con tu membresía VIP!
Todos los posts vivos con links de Mega y Google Drive.
Todo el material de Club-HD desbloqueado y sin publicidad.

Click Aquí para más información.


Para ver este contenido oculto, debes dar click en una de las siguientes reacciones : Like Like, Love Love, Haha Haha, Wow Wow, Sad Sad, Angry Angry

 
Última edición por un moderador:

Usuarios Que Están Viendo Este Tema (Total: 1, Miembros: 0, Invitados: 1)

Quién Leyó Este Tema (Total Miembros: 2)

Arriba