Vanishing on 7th Street (2010) 720p BDRip Dual Latino-Inglés [Subt. Esp] (Terror. Thriller. Intriga)

Maestro Revolver

Administrador
Registro
9 Ago 2012
Mensajes
3.157
Reacciones (ptje)
55.041


Vanishing.jpg




FichaTecnica.jpg


TÍTULO ORIGINAL: Vanishing on 7th Street
AÑO: 2010
DURACIÓN: 90 min.
PAÍS: USA
DIRECTOR: Brad Anderson
GUIÓN: Brad Anderson, Anthony Jaswinski
REPARTO: John Leguizamo, Thandie Newton, Hayden Christensen, Taylor Groothuis, Jacob Latimore, Jordan Trovillion, Pamela Croydon
PRODUCTORA: Circle of Confusion / Plum Pictures
GÉNERO: Terror. Thriller. Intriga
imdb-logo.png
: http://www.imdb.com/title/tt1452628/




Sinopsis.jpg


Vanishing on 7th Street cuenta como una misteriosa oscuridad llega a un pequeño pueblo. La gente comienza a desaparecer en ella y un grupo de supervivientes se refugia en una pequeña taberna sin saber lo qué sucede. Sin embargo, la oscuridad irá a por ellos uno por uno...




Trailer.jpg






Capturas.jpg


1.jpg


2.jpg


3.jpg


4.jpg


La pelicula NO tiene ninguna marca... solo colocamos el nombre de esta web en las capturas




MediaInfo.jpg


Código:
General
Format                                   : Matroska
Format version                           : Version 2
File size                                : 3.92 GiB
Duration                                 : 1h 31mn
Overall bit rate                         : 6 125 Kbps
Movie name                               : www.club-hd.com
Encoded date                             : UTC 2013-10-09 01:32:57
Writing application                      : mkvmerge v5.7.0 ('The Whirlwind') built on Jul  8 2012 20:08:51
Writing library                          : libebml v1.2.3 + libmatroska v1.3.0

Video
ID                                       : 1
Format                                   : AVC
Format/Info                              : Advanced Video Codec
Format profile                           : [email protected]
Format settings, CABAC                   : Yes
Format settings, ReFrames                : 12 frames
Codec ID                                 : V_MPEG4/ISO/AVC
Duration                                 : 1h 31mn
Bit rate                                 : 5 319 Kbps
Width                                    : 1 280 pixels
Height                                   : 532 pixels
Display aspect ratio                     : 2.40:1
Frame rate mode                          : Constant
Frame rate                               : 23.976 fps
Color space                              : YUV
Chroma subsampling                       : 4:2:0
Bit depth                                : 8 bits
Scan type                                : Progressive
Bits/(Pixel*Frame)                       : 0.326
Stream size                              : 3.31 GiB (84%)
Title                                    : www.club-hd.com
Writing library                          : x264 core 115 r1937 aa21558
Language                                 : English
Default                                  : Yes
Forced                                   : No

Audio #1
ID                                       : 2
Format                                   : AC-3
Format/Info                              : Audio Coding 3
Mode extension                           : CM (complete main)
Format settings, Endianness              : Big
Codec ID                                 : A_AC3
Duration                                 : 1h 31mn
Bit rate mode                            : Constant
Bit rate                                 : 192 Kbps
Channel(s)                               : 2 channels
Channel positions                        : Front: L R
Sampling rate                            : 44.1 KHz
Bit depth                                : 16 bits
Compression mode                         : Lossy
Stream size                              : 126 MiB (3%)
Title                                    : www.club-hd.com  >>  Latino
Language                                 : Spanish
Default                                  : Yes
Forced                                   : No

Audio #2
ID                                       : 3
Format                                   : AC-3
Format/Info                              : Audio Coding 3
Mode extension                           : CM (complete main)
Format settings, Endianness              : Big
Codec ID                                 : A_AC3
Duration                                 : 1h 31mn
Bit rate mode                            : Constant
Bit rate                                 : 640 Kbps
Channel(s)                               : 6 channels
Channel positions                        : Front: L C R, Side: L R, LFE
Sampling rate                            : 48.0 KHz
Bit depth                                : 16 bits
Compression mode                         : Lossy
Stream size                              : 420 MiB (10%)
Title                                    : www.club-hd.com  >>  Inglés
Language                                 : English
Default                                  : No
Forced                                   : No

Text
ID                                       : 4
Format                                   : UTF-8
Codec ID                                 : S_TEXT/UTF8
Codec ID/Info                            : UTF-8 Plain Text
Language                                 : Spanish
Default                                  : No
Forced                                   : No




Descarga.jpg



MEGA.jpg

Tenemos TODO el material de Club-HD disponible por Mega, enlaces 100% activos y online hasta la fecha

Llévate tus cuentas Mega PRO III gratis con tu membresía VIP!
Todos los posts vivos con links de Mega.
Todo el material de Club-HD desbloqueado y sin publicidad.

Obtén más información sobre nuestras Membresías VIP


UPLOADED_BANNER.png

Para ver este contenido oculto, debes dar click en el botón"Like", o cualquiera de las otras reacciones:

Me Gusta Me Gusta, Me Encanta Me Encanta, Jaja Jaja, Wow Wow, Triste Triste, Molesto Molesto



 
Última edición por un moderador:
no sabia de esta pelicula, pero se mira muy interesante mil grasias
 
Volver