Vehicle 19 (2013) 720p BDRip Audio Inglés [Subt. Esp] (Acción)

Maestro Revolver

Well-known member
Miembro del Staff
Administrador
Registro
9 Ago 2012
Mensajes
3.567








TÍTULO ORIGINAL: Vehicle 19
AÑO: 2013
PAÍS: USA
DIRECTOR: Mukunda Michael Dewil
GUIÓN: Mukunda Michael Dewil
REPARTO: Paul Walker, Naima McLean, Gys de Villiers, Leyla Haidarian, Tshepo Maseko, Andrian Mazive, Welile Nzuza, Mangaliso Ngema, Ernest Kubayi, Elize Van Niekerk, Paul Pieterse
PRODUCTORA: Forefront Media Group / Efish Entertainment / Picture Tree
GÉNERO: Acción | Coches / Automovilismo
: http://www.imdb.com/title/tt1911662/






Un hombre puesto recientemente en libertad condicional viaja a Sudáfrica. Tras un largo vuelo, el hombre escoge el coche equivocado y pronto se da cuenta de que se ha convertido en el blanco de la policía local, que utilizará todos los medios necesarios para detenerlos a él y a la mujer "pasajera" que descubre en el maletero. Su propósito es llegar a la Corte para testificara contra una poderosa trama de corrupción.
























La pelicula NO tiene ninguna marca... solo colocamos el nombre de esta web en las capturas






Código:
General
Format                                   : Matroska
Format version                           : Version 2
File size                                : 3.73 GiB
Duration                                 : 1h 25mn
Overall bit rate                         : 6 277 Kbps
Movie name                               : www.club-hd.com
Encoded date                             : UTC 2013-05-13 00:58:01
Writing application                      : mkvmerge v5.7.0 ('The Whirlwind') built on Jul  8 2012 20:08:51
Writing library                          : libebml v1.2.3 + libmatroska v1.3.0

Video
ID                                       : 1
Format                                   : AVC
Format/Info                              : Advanced Video Codec
Format profile                           : High@L4.1
Format settings, CABAC                   : Yes
Format settings, ReFrames                : 5 frames
Codec ID                                 : V_MPEG4/ISO/AVC
Duration                                 : 1h 25mn
Bit rate                                 : 5 833 Kbps
Width                                    : 1 280 pixels
Height                                   : 536 pixels
Display aspect ratio                     : 2.40:1
Frame rate mode                          : Constant
Frame rate                               : 23.976 fps
Color space                              : YUV
Chroma subsampling                       : 4:2:0
Bit depth                                : 8 bits
Scan type                                : Progressive
Bits/(Pixel*Frame)                       : 0.355
Stream size                              : 3.39 GiB (91%)
Title                                    : www.club-hd.com
Writing library                          : x264 core 132 r2310 76a5c3a
Language                                 : English
Default                                  : Yes
Forced                                   : No

Audio
ID                                       : 2
Format                                   : AC-3
Format/Info                              : Audio Coding 3
Mode extension                           : CM (complete main)
Format settings, Endianness              : Big
Codec ID                                 : A_AC3
Duration                                 : 1h 25mn
Bit rate mode                            : Constant
Bit rate                                 : 448 Kbps
Channel(s)                               : 6 channels
Channel positions                        : Front: L C R, Side: L R, LFE
Sampling rate                            : 48.0 KHz
Bit depth                                : 16 bits
Compression mode                         : Lossy
Stream size                              : 273 MiB (7%)
Title                                    : www.club-hd.com
Language                                 : English
Default                                  : Yes
Forced                                   : No

Text
ID                                       : 3
Format                                   : UTF-8
Codec ID                                 : S_TEXT/UTF8
Codec ID/Info                            : UTF-8 Plain Text
Language                                 : Spanish
Default                                  : Yes
Forced                                   : No

Menu
00:00:00.000                             : en:00:00:00.000
00:05:49.224                             : en:00:05:49.224
00:12:37.882                             : en:00:12:37.882
00:24:17.956                             : en:00:24:17.956
00:33:50.487                             : en:00:33:50.487
00:44:55.484                             : en:00:44:55.484
00:52:17.551                             : en:00:52:17.551
00:59:34.529                             : en:00:59:34.529
01:04:45.507                             : en:01:04:45.507
01:07:53.236                             : en:01:07:53.236
01:13:05.298                             : en:01:13:05.298
01:20:07.136                             : en:01:20:07.136








Enlaces de Mega y Google Drive solo disponibles para Miembros VIP

Compra tu Membresía VIP y apoya a Club-HD!

ATENCIÓN! Tenemos TODO el material de Club-HD disponible por Mega y Google Drive, enlaces 100% activos y online hasta la fecha

Llévate tus cuentas Mega PRO III gratis con tu membresía VIP!
Todos los posts vivos con links de Mega y Google Drive.
Todo el material de Club-HD desbloqueado y sin publicidad.

Click Aquí para más información.


Para ver este contenido oculto, debes dar click en una de las siguientes reacciones : Like Like, Love Love, Haha Haha, Wow Wow, Sad Sad, Angry Angry



 
Última edición por un moderador:

orcko5001

Active member
Registro
27 Ago 2012
Mensajes
288
Edad
38
jajaj se ve buena lo malo es que sentire que veo una pelicula mas de rapido y furioso aun asi muchas gracias man saludos desde mexico
 

Usuarios Que Están Viendo Este Tema (Total: 1, Miembros: 0, Invitados: 1)

Quién Leyó Este Tema (Total Miembros: 3)

Arriba