Walking with Dinosaurs (2013) 3D H-SBS 1080p BDRip Dual Latino-Inglés [Subt. Esp] (Animación. Documental)

Maestro Revolver

Administrador
Registro
9 Ago 2012
Mensajes
3.157
Reacciones (ptje)
54.925


Walking-with-dinosaurs.jpg





FichaTecnica.jpg


TÍTULO ORIGINAL: Walking with Dinosaurs (Walking with Dinosaurs 3D)
AÑO: 2013
DURACIÓN: 87 min.
PAÍS: USA
DIRECTOR: Barry Cook, Neil Nightingale
GUIÓN: John Collee, Theodore Thomas
REPARTO: Animation
PRODUCTORA: Coproducción Reino Unido-EEUU-Austrlia; Animal Logic / BBC Earth / BBC Worldwide
GÉNERO: Animación. Documental | Prehistoria. Dinosaurios. 3-D
imdb-logo.png
: http://www.imdb.com/title/tt1762399/




Sinopsis.jpg


“CAMINANDO ENTRE DINOSAURIOS” nos traslada hasta una Alaska prehistórica, donde conoceremos a Patch, un encantador y concienzudo dinosaurio, y a su familia. Patch es el pequeño de la camada, y nadie espera que vaya a llegar muy lejos. Pero Patch tiene un espíritu fuerte y un gran corazón; lo que le falta de fuerza física lo compensa con una gran tenacidad. Seguiremos a Patch y a su familia en su larga migración anual para encontrar comida. Es un emocionante viaje, sembrado de peligros, en el que también encontraremos amigos y muchas aventuras.




Trailer.jpg






Capturas.jpg


1.jpg


2.jpg


3.jpg


4.jpg


5.jpg


6.jpg


La pelicula NO tiene ninguna marca... solo colocamos el nombre de esta web en las capturas




MediaInfo.jpg


Código:
General
Format                                   : Matroska
Format version                           : Version 2
File size                                : 9.67 GiB
Duration                                 : 1h 27mn
Overall bit rate                         : 15.8 Mbps
Movie name                               : www.club-hd.com
Encoded date                             : UTC 2014-03-23 16:59:13
Writing application                      : mkvmerge v5.7.0 ('The Whirlwind') built on Jul  8 2012 20:08:51
Writing library                          : libebml v1.2.3 + libmatroska v1.3.0

Video
ID                                       : 1
Format                                   : AVC
Format/Info                              : Advanced Video Codec
Format profile                           : [email protected]
Format settings, CABAC                   : Yes
Format settings, ReFrames                : 4 frames
Muxing mode                              : Header stripping
Codec ID                                 : V_MPEG4/ISO/AVC
Duration                                 : 1h 27mn
Bit rate                                 : 13.2 Mbps
Width                                    : 1 920 pixels
Height                                   : 1 080 pixels
Display aspect ratio                     : 16:9
Frame rate mode                          : Constant
Frame rate                               : 23.976 fps
Color space                              : YUV
Chroma subsampling                       : 4:2:0
Bit depth                                : 8 bits
Scan type                                : Progressive
Bits/(Pixel*Frame)                       : 0.266
Stream size                              : 7.88 GiB (82%)
Title                                    : www.club-hd.com
Writing library                          : x264 core 140 r2377 1ca7bb9
Language                                 : English
Default                                  : Yes
Forced                                   : No

Audio #1
ID                                       : 2
Format                                   : AC-3
Format/Info                              : Audio Coding 3
Mode extension                           : CM (complete main)
Format settings, Endianness              : Big
Muxing mode                              : Header stripping
Codec ID                                 : A_AC3
Duration                                 : 1h 27mn
Bit rate mode                            : Constant
Bit rate                                 : 448 Kbps
Channel(s)                               : 6 channels
Channel positions                        : Front: L C R, Side: L R, LFE
Sampling rate                            : 48.0 KHz
Bit depth                                : 16 bits
Compression mode                         : Lossy
Delay relative to video                  : 8s 0ms
Stream size                              : 281 MiB (3%)
Title                                    : www.club-hd.com  >>  Latino AC3 5.1
Language                                 : Spanish
Default                                  : Yes
Forced                                   : No

Audio #2
ID                                       : 3
Format                                   : AC-3
Format/Info                              : Audio Coding 3
Mode extension                           : CM (complete main)
Format settings, Endianness              : Big
Muxing mode                              : Header stripping
Codec ID                                 : A_AC3
Duration                                 : 1h 27mn
Bit rate mode                            : Constant
Bit rate                                 : 640 Kbps
Channel(s)                               : 6 channels
Channel positions                        : Front: L C R, Side: L R, LFE
Sampling rate                            : 48.0 KHz
Bit depth                                : 16 bits
Compression mode                         : Lossy
Stream size                              : 401 MiB (4%)
Title                                    : www.club-hd.com  >>  Inglés AC3 5.1
Language                                 : English
Default                                  : No
Forced                                   : No

Audio #3
ID                                       : 4
Format                                   : DTS
Format/Info                              : Digital Theater Systems
Mode                                     : 16
Format settings, Endianness              : Big
Muxing mode                              : Header stripping
Codec ID                                 : A_DTS
Duration                                 : 1h 27mn
Bit rate mode                            : Constant
Bit rate                                 : 1 509 Kbps
Channel(s)                               : 6 channels
Channel positions                        : Front: L C R, Side: L R, LFE
Sampling rate                            : 48.0 KHz
Bit depth                                : 24 bits
Compression mode                         : Lossy
Delay relative to video                  : 11ms
Stream size                              : 945 MiB (10%)
Title                                    : www.club-hd.com  >>  Inglés DTS 5.1
Language                                 : English
Default                                  : No
Forced                                   : No

Text
ID                                       : 5
Format                                   : VobSub
Muxing mode                              : zlib
Codec ID                                 : S_VOBSUB
Codec ID/Info                            : The same subtitle format used on DVDs
Language                                 : Spanish
Default                                  : No
Forced                                   : No

Menu
00:00:00.000                             : en:1 - 0:00:00
00:01:52.529                             : en:2 - 0:01:52
00:05:28.954                             : en:3 - 0:05:28
00:07:35.747                             : en:4 - 0:07:35
00:12:14.108                             : en:5 - 0:12:14
00:14:54.977                             : en:6 - 0:14:54
00:17:11.948                             : en:7 - 0:17:11
00:18:38.367                             : en:8 - 0:18:38
00:21:55.147                             : en:9 - 0:21:55
00:24:38.519                             : en:10 - 0:24:38
00:27:15.217                             : en:11 - 0:27:15
00:28:35.964                             : en:12 - 0:28:35
00:30:48.513                             : en:13 - 0:30:48
00:33:06.401                             : en:14 - 0:33:06
00:37:45.763                             : en:15 - 0:37:45
00:42:10.319                             : en:16 - 0:42:10
00:44:07.853                             : en:17 - 0:44:07
00:47:43.861                             : en:18 - 0:47:43
00:51:07.231                             : en:19 - 0:51:07
00:52:58.801                             : en:20 - 0:52:58
00:56:57.039                             : en:21 - 0:56:57
00:58:28.755                             : en:22 - 0:58:28
01:02:56.731                             : en:23 - 1:02:56
01:06:53.384                             : en:24 - 1:06:53
01:10:48.077                             : en:25 - 1:10:48
01:17:02.243                             : en:26 - 1:17:02
01:18:48.223                             : en:27 - 1:18:48
01:20:23.569                             : en:28 - 1:20:23




Descarga.jpg



MEGA.jpg

Tenemos TODO el material de Club-HD disponible por Mega, enlaces 100% activos y online hasta la fecha

Llévate tus cuentas Mega PRO III gratis con tu membresía VIP!
Todos los posts vivos con links de Mega.
Todo el material de Club-HD desbloqueado y sin publicidad.

Obtén más información sobre nuestras Membresías VIP


LETITBIT_BANNER.png

Para ver este contenido oculto, debes dar click en el botón"Like", o cualquiera de las otras reacciones:

Me Gusta Me Gusta, Me Encanta Me Encanta, Jaja Jaja, Wow Wow, Triste Triste, Molesto Molesto

UPLOADED_BANNER.png

Para ver este contenido oculto, debes dar click en el botón"Like", o cualquiera de las otras reacciones:

Me Gusta Me Gusta, Me Encanta Me Encanta, Jaja Jaja, Wow Wow, Triste Triste, Molesto Molesto

 
Última edición por un moderador:
gran aportaso muchas grasias saludos desde valdivia chile
 
Volver