Welcome to the Jungle (2013) 720p BDRip Dual Latino-Inglés [Subt. Esp] (Comedia. Aventura. Acción)

Maestro Revolver

Administrador
Registro
9 Ago 2012
Mensajes
3.157
Reacciones (ptje)
54.926


Welcome-To-The-Jungle.jpg




FichaTecnica.jpg


TÍTULO ORIGINAL: Welcome to the Jungle
AÑO: 2013
DURACIÓN: 95 min.
PAÍS: USA
DIRECTOR: Rob Meltzer
GUIÓN: Jeff Kauffmann
REPARTO: Jean-Claude Van Damme, Adam Brody, Rob Huebel, Kristem Schaal, Megan Boone, Dennis Haysbert
PRODUCTORA: Stun Creative / The Pimienta, Salt Company International
GÉNERO: Comedia. Aventuras. Acción
imdb-logo.png
: http://www.imdb.com/title/tt2193265/




Sinopsis.jpg


Un grupo de empleados de una empresa de diseño van de vacaciones a una isla tropical. Pero todo se volverá un caos total cuando se quedan allí varados...




Trailer.jpg






Capturas.jpg


1.jpg


2.jpg


3.jpg


4.jpg


5.jpg


6.jpg


La pelicula NO tiene ninguna marca... solo colocamos el nombre de esta web en las capturas




MediaInfo.jpg


Código:
General
Format                                   : Matroska
Format version                           : Version 2
File size                                : 4.10 GiB
Duration                                 : 1h 34mn
Overall bit rate                         : 6 222 Kbps
Movie name                               : www.club-hd.com
Encoded date                             : UTC 2014-02-11 22:50:23
Writing application                      : mkvmerge v5.7.0 ('The Whirlwind') built on Jul  8 2012 20:08:51
Writing library                          : libebml v1.2.3 + libmatroska v1.3.0

Video
ID                                       : 1
Format                                   : AVC
Format/Info                              : Advanced Video Codec
Format profile                           : [email protected]
Format settings, CABAC                   : Yes
Format settings, ReFrames                : 5 frames
Muxing mode                              : Header stripping
Codec ID                                 : V_MPEG4/ISO/AVC
Duration                                 : 1h 34mn
Bit rate                                 : 5 133 Kbps
Width                                    : 1 280 pixels
Height                                   : 536 pixels
Display aspect ratio                     : 2.40:1
Frame rate mode                          : Constant
Frame rate                               : 23.976 fps
Color space                              : YUV
Chroma subsampling                       : 4:2:0
Bit depth                                : 8 bits
Scan type                                : Progressive
Bits/(Pixel*Frame)                       : 0.312
Stream size                              : 3.30 GiB (81%)
Title                                    : www.club-hd.com
Writing library                          : x264 core 142 r2389 956c8d8
Language                                 : English
Default                                  : Yes
Forced                                   : No

Audio #1
ID                                       : 2
Format                                   : AC-3
Format/Info                              : Audio Coding 3
Mode extension                           : CM (complete main)
Format settings, Endianness              : Big
Muxing mode                              : Header stripping
Codec ID                                 : A_AC3
Duration                                 : 1h 34mn
Bit rate mode                            : Constant
Bit rate                                 : 640 Kbps
Channel(s)                               : 6 channels
Channel positions                        : Front: L C R, Side: L R, LFE
Sampling rate                            : 48.0 KHz
Bit depth                                : 16 bits
Compression mode                         : Lossy
Stream size                              : 431 MiB (10%)
Title                                    : www.club-hd.com  >>  Latino
Language                                 : Spanish
Default                                  : Yes
Forced                                   : No

Audio #2
ID                                       : 3
Format                                   : AC-3
Format/Info                              : Audio Coding 3
Mode extension                           : CM (complete main)
Format settings, Endianness              : Big
Muxing mode                              : Header stripping
Codec ID                                 : A_AC3
Duration                                 : 1h 34mn
Bit rate mode                            : Constant
Bit rate                                 : 448 Kbps
Channel(s)                               : 6 channels
Channel positions                        : Front: L C R, Side: L R, LFE
Sampling rate                            : 48.0 KHz
Bit depth                                : 16 bits
Compression mode                         : Lossy
Stream size                              : 302 MiB (7%)
Title                                    : www.club-hd.com  >>  Inglés
Language                                 : English
Default                                  : No
Forced                                   : No

Text
ID                                       : 4
Format                                   : UTF-8
Codec ID                                 : S_TEXT/UTF8
Codec ID/Info                            : UTF-8 Plain Text
Language                                 : Spanish
Default                                  : No
Forced                                   : No

Menu
00:00:00.000                             : en:00:00:00.000
00:07:37.415                             : en:00:07:37.415
00:16:20.813                             : en:00:16:20.813
00:22:29.431                             : en:00:22:29.431
00:30:31.872                             : en:00:30:31.872
00:37:32.167                             : en:00:37:32.167
00:44:06.727                             : en:00:44:06.727
00:54:38.901                             : en:00:54:38.901
01:05:44.983                             : en:01:05:44.983
01:10:06.452                             : en:01:10:06.452
01:24:13.632                             : en:01:24:13.632
01:28:57.916                             : en:01:28:57.916




Descarga.jpg



MEGA.jpg

Tenemos TODO el material de Club-HD disponible por Mega, enlaces 100% activos y online hasta la fecha

Llévate tus cuentas Mega PRO III gratis con tu membresía VIP!
Todos los posts vivos con links de Mega.
Todo el material de Club-HD desbloqueado y sin publicidad.

Obtén más información sobre nuestras Membresías VIP



UPLOADED_BANNER.png

Para ver este contenido oculto, debes dar click en el botón"Like", o cualquiera de las otras reacciones:

Me Gusta Me Gusta, Me Encanta Me Encanta, Jaja Jaja, Wow Wow, Triste Triste, Molesto Molesto
 
Última edición por un moderador:
Volver