What Maisie Knew (2012) 720p BDRip Audio Inglés [Subt. Esp] (Drama)

Maestro Revolver

Well-known member
Miembro del Staff
Administrador
Registro
9 Ago 2012
Mensajes
3.567








TÍTULO ORIGINAL: What Maisie Knew
AÑO: 2012
DURACIÓN: 99 min.
PAÍS: USA
DIRECTOR: Scott McGehee, David Siegel
GUIÓN: Carroll Cartwright (Novela: Henry James)
REPARTO: Julianne Moore, Alexander Skarsgård, Steve Coogan, Diana García, Samantha Buck, Joanna Vanderham, Stephen Mailer, Joel Garland, James Colby, Trevor Long, Robert C. Kirk, Zachary Unger
PRODUCTORA: Red Crown Productions / Weinstock Productions / 10th Hole Productions
GÉNERO: Drama
: http://www.imdb.com/title/tt1932767/






La joven Maisie, una niña de 7 años, se ve envuelta en el divorcio de sus padres: Susana, una estrella del rock cuya juventud y mejor momento quedó ya atrás, y Beale, un importante corredor de arte.
























La pelicula NO tiene ninguna marca... solo colocamos el nombre de esta web en las capturas






Código:
General
Format                                   : Matroska
Format version                           : Version 2
File size                                : 3.27 GiB
Duration                                 : 1h 38mn
Overall bit rate                         : 4 738 Kbps
Movie name                               : www.club-hd.com
Encoded date                             : UTC 2013-07-24 21:23:57
Writing application                      : mkvmerge v5.7.0 ('The Whirlwind') built on Jul  8 2012 20:08:51
Writing library                          : libebml v1.2.3 + libmatroska v1.3.0

Video
ID                                       : 1
Format                                   : AVC
Format/Info                              : Advanced Video Codec
Format profile                           : High@L4.1
Format settings, CABAC                   : Yes
Format settings, ReFrames                : 5 frames
Codec ID                                 : V_MPEG4/ISO/AVC
Duration                                 : 1h 38mn
Bit rate                                 : 4 098 Kbps
Width                                    : 1 280 pixels
Height                                   : 536 pixels
Display aspect ratio                     : 2.40:1
Frame rate mode                          : Constant
Frame rate                               : 23.976 fps
Color space                              : YUV
Chroma subsampling                       : 4:2:0
Bit depth                                : 8 bits
Scan type                                : Progressive
Bits/(Pixel*Frame)                       : 0.249
Stream size                              : 2.77 GiB (85%)
Title                                    : www.club-hd.com
Writing library                          : x264 core 133 r2334 a3ac64b
Language                                 : English
Default                                  : Yes
Forced                                   : No

Audio
ID                                       : 2
Format                                   : AC-3
Format/Info                              : Audio Coding 3
Mode extension                           : CM (complete main)
Format settings, Endianness              : Big
Codec ID                                 : A_AC3
Duration                                 : 1h 38mn
Bit rate mode                            : Constant
Bit rate                                 : 640 Kbps
Channel(s)                               : 6 channels
Channel positions                        : Front: L C R, Side: L R, LFE
Sampling rate                            : 48.0 KHz
Bit depth                                : 16 bits
Compression mode                         : Lossy
Stream size                              : 453 MiB (14%)
Title                                    : www.club-hd.com
Language                                 : English
Default                                  : Yes
Forced                                   : No

Text
ID                                       : 3
Format                                   : UTF-8
Codec ID                                 : S_TEXT/UTF8
Codec ID/Info                            : UTF-8 Plain Text
Language                                 : Spanish
Default                                  : Yes
Forced                                   : No

Menu
00:00:00.000                             : en:00:00:00.000
00:08:47.944                             : en:00:08:47.944
00:15:39.230                             : en:00:15:39.230
00:23:45.215                             : en:00:23:45.215
00:31:58.625                             : en:00:31:58.625
00:39:14.227                             : en:00:39:14.227
00:48:48.759                             : en:00:48:48.759
00:56:55.037                             : en:00:56:55.037
01:06:00.373                             : en:01:06:00.373
01:17:18.092                             : en:01:17:18.092
01:28:08.200                             : en:01:28:08.200
01:35:03.573                             : en:01:35:03.573








Enlaces de Mega y Google Drive solo disponibles para Miembros VIP

Compra tu Membresía VIP y apoya a Club-HD!

ATENCIÓN! Tenemos TODO el material de Club-HD disponible por Mega y Google Drive, enlaces 100% activos y online hasta la fecha

Llévate tus cuentas Mega PRO III gratis con tu membresía VIP!
Todos los posts vivos con links de Mega y Google Drive.
Todo el material de Club-HD desbloqueado y sin publicidad.

Click Aquí para más información.


Para ver este contenido oculto, debes dar click en una de las siguientes reacciones : Like Like, Love Love, Haha Haha, Wow Wow, Sad Sad, Angry Angry

 
Última edición por un moderador:

Usuarios Que Están Viendo Este Tema (Total: 1, Miembros: 0, Invitados: 1)

Quién Leyó Este Tema (Total Miembros: 4)

Arriba