What to Expect When You're Expecting (2012) m-720p Dual Latino-Inglés [Subt. Esp-Ing] (Comedia. Romance)

Maestro Revolver

Well-known member
Miembro del Staff
Administrador
Registro
9 Ago 2012
Mensajes
3.568

Rep:









TÍTULO ORIGINAL: What to Expect When You're Expecting
AÑO: 2012
DURACIÓN: 110 min.
PAÍS: USA
DIRECTOR: Kirk Jones
GUIÓN: Shauna Cross, Heather Hach (Libro: Heidi Murkoff)
REPARTO: Cameron Diaz, Matthew Morrison, Dennis Quaid, Elizabeth Banks, Anna Kendrick, Jennifer Lopez, Rodrigo Santoro, Chris Rock, Brooklyn Decker
PRODUCTORA: Lionsgate / Phoenix Pictures / Alcon Entertainment
GÉNERO: Comedia. Romance | Comedia romántica. Familia
: http://www.imdb.com/title/tt1586265/





Adaptación del libro más popular sobre el embarazo. Cuatro parejas están a punto de conocer las emociones, los temores y los quebraderos de cabeza que supone el ser padres.
























La pelicula NO tiene ninguna marca... solo colocamos el nombre de esta web en las capturas






Código:
General
Format                                   : Matroska
Format version                           : Version 2
File size                                : 2.84 GiB
Duration                                 : 1h 49mn
Overall bit rate                         : 3 703 Kbps
Movie name                               : www.club-hd.com
Encoded date                             : UTC 2012-11-27 17:08:33
Writing application                      : mkvmerge v5.7.0 ('The Whirlwind') built on Jul  8 2012 20:08:51
Writing library                          : libebml v1.2.3 + libmatroska v1.3.0

Video
ID                                       : 1
Format                                   : AVC
Format/Info                              : Advanced Video Codec
Format profile                           : High@L4.1
Format settings, CABAC                   : Yes
Format settings, ReFrames                : 8 frames
Codec ID                                 : V_MPEG4/ISO/AVC
Duration                                 : 1h 49mn
Bit rate                                 : 2 806 Kbps
Width                                    : 1 280 pixels
Height                                   : 528 pixels
Display aspect ratio                     : 2.40:1
Original display aspect ratio            : 2.40:1
Frame rate mode                          : Constant
Frame rate                               : 23.976 fps
Color space                              : YUV
Chroma subsampling                       : 4:2:0
Bit depth                                : 8 bits
Scan type                                : Progressive
Bits/(Pixel*Frame)                       : 0.173
Stream size                              : 2.10 GiB (74%)
Title                                    : www.club-hd.com
Writing library                          : x264 core 125 r2200 999b753
Language                                 : English
Default                                  : Yes
Forced                                   : No

Audio #1
ID                                       : 2
Format                                   : AC-3
Format/Info                              : Audio Coding 3
Mode extension                           : CM (complete main)
Format settings, Endianness              : Big
Codec ID                                 : A_AC3
Duration                                 : 1h 49mn
Bit rate mode                            : Constant
Bit rate                                 : 448 Kbps
Channel(s)                               : 6 channels
Channel positions                        : Front: L C R, Side: L R, LFE
Sampling rate                            : 48.0 KHz
Bit depth                                : 16 bits
Compression mode                         : Lossy
Stream size                              : 352 MiB (12%)
Title                                    : www.club-hd.com  >>  Latino
Language                                 : Spanish
Default                                  : Yes
Forced                                   : No

Audio #2
ID                                       : 3
Format                                   : AC-3
Format/Info                              : Audio Coding 3
Mode extension                           : CM (complete main)
Format settings, Endianness              : Big
Codec ID                                 : A_AC3
Duration                                 : 1h 49mn
Bit rate mode                            : Constant
Bit rate                                 : 448 Kbps
Channel(s)                               : 6 channels
Channel positions                        : Front: L C R, Side: L R, LFE
Sampling rate                            : 48.0 KHz
Bit depth                                : 16 bits
Compression mode                         : Lossy
Stream size                              : 352 MiB (12%)
Title                                    : www.club-hd.com  >>  Ingles
Language                                 : English
Default                                  : No
Forced                                   : No

Text #1
ID                                       : 4
Format                                   : UTF-8
Codec ID                                 : S_TEXT/UTF8
Codec ID/Info                            : UTF-8 Plain Text
Language                                 : Spanish
Default                                  : No
Forced                                   : No

Text #2
ID                                       : 5
Format                                   : UTF-8
Codec ID                                 : S_TEXT/UTF8
Codec ID/Info                            : UTF-8 Plain Text
Language                                 : English
Default                                  : No
Forced                                   : No

Menu
00:00:00.000                             : en:00:00:00.000
00:06:29.097                             : en:00:06:29.097
00:14:04.719                             : en:00:14:04.719
00:20:01.575                             : en:00:20:01.575
00:28:09.938                             : en:00:28:09.938
00:36:39.280                             : en:00:36:39.280
00:42:06.899                             : en:00:42:06.899
00:48:34.829                             : en:00:48:34.829
00:58:37.597                             : en:00:58:37.597
01:06:46.377                             : en:01:06:46.377
01:10:58.921                             : en:01:10:58.921
01:19:40.317                             : en:01:19:40.317
01:25:03.015                             : en:01:25:03.015
01:30:24.878                             : en:01:30:24.878
01:35:17.045                             : en:01:35:17.045
01:43:52.685                             : en:01:43:52.685




Sin Contraseña | Simple Extracción





Links Intercambiables





Enlaces de Mega y Fireload solo disponibles para Miembros VIP

Compra tu Membresía VIP y apoya a Club-HD!

ATENCIÓN! Tenemos TODO el material de Club-HD disponible por Mega y Fireload, enlaces 100% activos y online hasta la fecha

Llévate tus cuentas Mega PRO II gratis con tu membresía VIP!
Todos los posts vivos con links de Mega y Fireload.
Todo el material de Club-HD desbloqueado y sin publicidad.

Click Aquí para más información.



Enlaces de Mega y Fireload solo disponibles para Miembros VIP

Compra tu Membresía VIP y apoya a Club-HD!

ATENCIÓN! Tenemos TODO el material de Club-HD disponible por Mega y Fireload, enlaces 100% activos y online hasta la fecha

Llévate tus cuentas Mega PRO II gratis con tu membresía VIP!
Todos los posts vivos con links de Mega y Fireload.
Todo el material de Club-HD desbloqueado y sin publicidad.

Click Aquí para más información.


Para ver este contenido oculto, debes dar click en una de las siguientes reacciones : Like Like, Love Love, Haha Haha, Wow Wow, Sad Sad, Angry Angry



 
Última edición por un moderador:

Yonatan

Admin
Miembro del Staff
Administrador
Registro
27 Ago 2012
Mensajes
1.767
Edad
28
Ubicación
Chile, Sexta Región

Rep:

esta tendre que descargarla de nuevo se me perdio no se como asi que agregar a la lista de descargas

gracias
 

Joker

Well-known member
Miembro del Staff
Súper Moderador
Registro
27 Ago 2012
Mensajes
1.349
Ubicación
Arkham Asylum

Rep:

Esta ya la habia descargado, es una lastima que ya no suban solo los audios :llrnd2:
xD


Neee, con semejantes aportes ya es demasiado, se agradece :dplgar:


Saludos :D


Desc_g_
 

Usuarios Que Están Viendo Este Tema (Total: 1, Miembros: 0, Invitados: 1)

Quién Leyó Este Tema (Total Miembros: 1)

Arriba