Won't Back Down (2012) m-720p Dual Latino-Inglés [Subt. Esp-Ing] (Drama)

Maestro Revolver

Well-known member
Miembro del Staff
Administrador
Registro
9 Ago 2012
Mensajes
3.569
Reacciones
59.350
Puntos
113

Reputation:









TÍTULO ORIGINAL: Won't Back Down
AÑO: 2012
DURACIÓN: 121 min.
PAÍS: USA
DIRECTOR: Daniel Barnz
GUIÓN: Brin Hill, Daniel Barnz
REPARTO: Maggie Gyllenhaal, Viola Davis, Holly Hunter, Oscar Isaac, Ving Rhames, Lance Reddick, Rosie Perez, Emily Alyn Lind, Marianne Jean-Baptiste, Bill Nunn
PRODUCTORA: 20th Century Fox / Walden Media / Gran Via Productions
GÉNERO: Drama | Basado en hechos reales. Colegios & Universidad. Enseñanza
: http://www.imdb.com/title/tt1870529/






Inspirada en hechos reales, "Won't Back Down" se centra en la crisis de la educación pública en Estados Unidos. Narra la historia de dos madres luchadoras que están dispuestas a pasar a la acción con tal de transformar la escuela a la que van sus hijos.
























La pelicula NO tiene ninguna marca... solo colocamos el nombre de esta web en las capturas






Código:
General
Format                                   : Matroska
Format version                           : Version 2
File size                                : 3.18 GiB
Duration                                 : 2h 1mn
Overall bit rate                         : 3 761 Kbps
Movie name                               : www.club-hd.com
Encoded date                             : UTC 2013-01-15 00:18:56
Writing application                      : mkvmerge v5.7.0 ('The Whirlwind') built on Jul  8 2012 20:08:51
Writing library                          : libebml v1.2.3 + libmatroska v1.3.0

Video
ID                                       : 1
Format                                   : AVC
Format/Info                              : Advanced Video Codec
Format profile                           : High@L4.1
Format settings, CABAC                   : Yes
Format settings, ReFrames                : 9 frames
Codec ID                                 : V_MPEG4/ISO/AVC
Duration                                 : 2h 1mn
Bit rate                                 : 2 864 Kbps
Width                                    : 1 280 pixels
Height                                   : 544 pixels
Display aspect ratio                     : 2.35:1
Frame rate mode                          : Constant
Frame rate                               : 23.976 fps
Color space                              : YUV
Chroma subsampling                       : 4:2:0
Bit depth                                : 8 bits
Scan type                                : Progressive
Bits/(Pixel*Frame)                       : 0.172
Stream size                              : 2.36 GiB (74%)
Title                                    : www.club-hd.com
Writing library                          : x264 core 129 r2230 1cffe9f
Language                                 : English
Default                                  : Yes
Forced                                   : No

Audio #1
ID                                       : 2
Format                                   : AC-3
Format/Info                              : Audio Coding 3
Mode extension                           : CM (complete main)
Format settings, Endianness              : Big
Codec ID                                 : A_AC3
Duration                                 : 2h 1mn
Bit rate mode                            : Constant
Bit rate                                 : 448 Kbps
Channel(s)                               : 6 channels
Channel positions                        : Front: L C R, Side: L R, LFE
Sampling rate                            : 48.0 KHz
Bit depth                                : 16 bits
Compression mode                         : Lossy
Stream size                              : 388 MiB (12%)
Title                                    : www.club-hd.com  >>  Latino
Language                                 : Spanish
Default                                  : Yes
Forced                                   : No

Audio #2
ID                                       : 3
Format                                   : AC-3
Format/Info                              : Audio Coding 3
Mode extension                           : CM (complete main)
Format settings, Endianness              : Big
Codec ID                                 : A_AC3
Duration                                 : 2h 1mn
Bit rate mode                            : Constant
Bit rate                                 : 448 Kbps
Channel(s)                               : 6 channels
Channel positions                        : Front: L C R, Side: L R, LFE
Sampling rate                            : 48.0 KHz
Bit depth                                : 16 bits
Compression mode                         : Lossy
Stream size                              : 388 MiB (12%)
Title                                    : www.club-hd.com  >>  Inglés
Language                                 : English
Default                                  : No
Forced                                   : No

Text #1
ID                                       : 4
Format                                   : UTF-8
Codec ID                                 : S_TEXT/UTF8
Codec ID/Info                            : UTF-8 Plain Text
Title                                    : Forzados
Language                                 : Spanish
Default                                  : Yes
Forced                                   : No

Text #2
ID                                       : 5
Format                                   : UTF-8
Codec ID                                 : S_TEXT/UTF8
Codec ID/Info                            : UTF-8 Plain Text
Language                                 : Spanish
Default                                  : No
Forced                                   : No

Text #3
ID                                       : 6
Format                                   : UTF-8
Codec ID                                 : S_TEXT/UTF8
Codec ID/Info                            : UTF-8 Plain Text
Language                                 : English
Default                                  : No
Forced                                   : No

Menu
00:00:00.000                             : en:Chapter 1
00:04:41.406                             : en:Chapter 2
00:07:45.632                             : en:Chapter 3
00:11:59.260                             : en:Chapter 4
00:13:56.210                             : en:Chapter 5
00:16:38.998                             : en:Chapter 6
00:23:18.188                             : en:Chapter 7
00:28:06.810                             : en:Chapter 8
00:32:56.600                             : en:Chapter 9
00:35:25.582                             : en:Chapter 10
00:41:52.510                             : en:Chapter 11
00:47:44.070                             : en:Chapter 12
00:52:57.925                             : en:Chapter 13
00:57:42.125                             : en:Chapter 14
01:01:33.231                             : en:Chapter 15
01:04:56.184                             : en:Chapter 16
01:07:47.146                             : en:Chapter 17
01:10:25.179                             : en:Chapter 18
01:17:51.959                             : en:Chapter 19
01:21:15.537                             : en:Chapter 20
01:25:09.146                             : en:Chapter 21
01:31:56.261                             : en:Chapter 22
01:35:06.326                             : en:Chapter 23
01:40:31.484                             : en:Chapter 24
01:44:25.593                             : en:Chapter 25
01:48:15.572                             : en:Chapter 26
01:54:47.547                             : en:Chapter 27
01:56:57.677                             : en:Chapter 28










Enlaces de Mega y Fireload solo disponibles para Miembros VIP

Compra tu Membresía VIP y apoya a Club-HD!

ATENCIÓN! Tenemos TODO el material de Club-HD disponible por Mega y Fireload, enlaces 100% activos y online hasta la fecha

Llévate tus cuentas Mega PRO II gratis con tu membresía VIP!
Todos los posts vivos con links de Mega y Fireload.
Todo el material de Club-HD desbloqueado y sin publicidad.

Click Aquí para más información.




Enlaces de Mega y Fireload solo disponibles para Miembros VIP

Compra tu Membresía VIP y apoya a Club-HD!

ATENCIÓN! Tenemos TODO el material de Club-HD disponible por Mega y Fireload, enlaces 100% activos y online hasta la fecha

Llévate tus cuentas Mega PRO II gratis con tu membresía VIP!
Todos los posts vivos con links de Mega y Fireload.
Todo el material de Club-HD desbloqueado y sin publicidad.

Click Aquí para más información.



Para ver este contenido oculto, debes dar click en una de las siguientes reacciones : Like Like, Love Love, Haha Haha, Wow Wow, Sad Sad, Angry Angry
 
Última edición:

Mate78

Ladron de mi cerebro
Miembro del Staff
Súper Moderador
Registro
27 Ago 2012
Mensajes
1.235
Reacciones
918
Puntos
113

Reputation:

Sos un grosooooo. gracias bestia21-----
 

kenny407

New member
Registro
27 Ago 2012
Mensajes
490
Reacciones
29
Puntos
0
Edad
27

Reputation:

Excelente, la estaba esperando, muchas gracias!
 

alex

New member
Registro
28 Ago 2012
Mensajes
58
Reacciones
1
Puntos
0

Reputation:

Excelente, la estaba esperando, muchas gracias!
 

Usuarios Que Están Viendo Este Tema (Total: 1, Miembros: 0, Invitados: 1)

Arriba