Would You Rather (2012) 720p BDRip Audio Inglés [Subt. Esp] (Thriller)

Maestro Revolver

Well-known member
Miembro del Staff
Administrador
Registro
9 Ago 2012
Mensajes
3.567








TÍTULO ORIGINAL: Would You Rather
AÑO: 2012
DURACIÓN: 93 min.
PAÍS: USA
DIRECTOR: David Guy Levy
GUIÓN: Steffen Schlachtenhaufen
REPARTO: Brittany Snow, Jeffrey Combs, Sasha Grey, Jonny Coyne, Lawrence Gilliard Jr., Enver Gjokaj, John Heard, Charlie Hofheimer, Logan Miller, June Squibb
PRODUCTORA: Periscope Entertainment / Social Construct
GÉNERO: Thriller. Drama
: http://www.imdb.com/title/tt1999995/






A raíz de la muerte de su padre, Iris (Brittany Snow) se esfuerza por ganarse la vida mientras cuida a su hermano pequeño, un enfermo terminal. Shepard Lambrick (Jeffrey Combs), un aristócrata aparentemente filantrópico, expresa su interés en ayudarles. Cuando Lambrick la invita a una exclusiva cena en su casa, ella acepta, pero a esa cena también asisten otros siete individuos tan desesperados como ella. Pronto se encontrarán atrapados en la mansión de Lambrick y serán obligados a un juego sádico llamado "Would You Rather" (¿Qué preferirías?), donde el ganador será premiado con una incalculable cantidad de dinero. Mientras el juego progresa, Iris y los otros jugadores se verán frente a un dilema que irá creciendo y convirtiéndose en algo cada vez más mortífero...
























La pelicula NO tiene ninguna marca... solo colocamos el nombre de esta web en las capturas






Código:
General
Format                                   : Matroska
Format version                           : Version 2
File size                                : 1.98 GiB
Duration                                 : 1h 33mn
Overall bit rate                         : 3 034 Kbps
Movie name                               : www.club-hd.com
Encoded date                             : UTC 2013-07-13 21:35:25
Writing application                      : mkvmerge v5.7.0 ('The Whirlwind') built on Jul  8 2012 20:08:51
Writing library                          : libebml v1.2.3 + libmatroska v1.3.0

Video
ID                                       : 1
Format                                   : AVC
Format/Info                              : Advanced Video Codec
Format profile                           : High@L4.1
Format settings, CABAC                   : Yes
Format settings, ReFrames                : 6 frames
Codec ID                                 : V_MPEG4/ISO/AVC
Duration                                 : 1h 33mn
Bit rate                                 : 2 526 Kbps
Width                                    : 1 280 pixels
Height                                   : 544 pixels
Display aspect ratio                     : 2.35:1
Frame rate mode                          : Constant
Frame rate                               : 23.976 fps
Color space                              : YUV
Chroma subsampling                       : 4:2:0
Bit depth                                : 8 bits
Scan type                                : Progressive
Bits/(Pixel*Frame)                       : 0.151
Stream size                              : 1.65 GiB (83%)
Writing library                          : x264 core 133 r2334 a3ac64b
Language                                 : English
Default                                  : Yes
Forced                                   : No

Audio
ID                                       : 2
Format                                   : AC-3
Format/Info                              : Audio Coding 3
Mode extension                           : CM (complete main)
Format settings, Endianness              : Big
Codec ID                                 : A_AC3
Duration                                 : 1h 33mn
Bit rate mode                            : Constant
Bit rate                                 : 448 Kbps
Channel(s)                               : 6 channels
Channel positions                        : Front: L C R, Side: L R, LFE
Sampling rate                            : 48.0 KHz
Bit depth                                : 16 bits
Compression mode                         : Lossy
Stream size                              : 299 MiB (15%)
Language                                 : English
Default                                  : Yes
Forced                                   : No

Text
ID                                       : 3
Format                                   : UTF-8
Codec ID                                 : S_TEXT/UTF8
Codec ID/Info                            : UTF-8 Plain Text
Language                                 : Spanish
Default                                  : Yes
Forced                                   : No








Enlaces de Mega y Google Drive solo disponibles para Miembros VIP

Compra tu Membresía VIP y apoya a Club-HD!

ATENCIÓN! Tenemos TODO el material de Club-HD disponible por Mega y Google Drive, enlaces 100% activos y online hasta la fecha

Llévate tus cuentas Mega PRO III gratis con tu membresía VIP!
Todos los posts vivos con links de Mega y Google Drive.
Todo el material de Club-HD desbloqueado y sin publicidad.

Click Aquí para más información.


Para ver este contenido oculto, debes dar click en una de las siguientes reacciones : Like Like, Love Love, Haha Haha, Wow Wow, Sad Sad, Angry Angry



 
Última edición por un moderador:

deividmetal

Active member
Registro
28 Ago 2012
Mensajes
531
Ubicación
españa
la actriz porno shasha gray esta alli o me parece? jajaja muy buena ella ahora es actriz de pelis normales xq se retiro del porno xD
 

Usuarios Que Están Viendo Este Tema (Total: 1, Miembros: 0, Invitados: 1)

Quién Leyó Este Tema (Total Miembros: 2)

Arriba