Wreck-It Ralph (2012) 3D H-SBS 1080p BDRip Dual Latino-Inglés [Subt. Esp-Ing] (Animation)

Maestro Revolver

Administrador
Registro
9 Ago 2012
Mensajes
3.157
Reacciones (ptje)
55.202


Wreck-It-Ralph-3D.jpg




FichaTecnica.jpg


TÍTULO ORIGINAL: Wreck-It Ralph
AÑO: 2012
DURACIÓN: 101 min.
PAÍS: USA
DIRECTOR: Rich Moore
GUIÓN: Phil Johnston
REPARTO: Animation
PRODUCTORA: Walt Disney Animation Studios
GÉNERO: Animación. Fantástico. Comedia | Videojuego. 3-D
imdb-logo.png
: http://www.imdb.es/title/tt1772341/

PREMIOS: 2012: Oscar: Nominada a Mejor película de animación
2012: 5 Premios Annie, incluyendo Mejor película. 10 nominaciones
2012: Critics Choice Awards: Mejor película de animación
2012: Globos de Oro: Nominada a Mejor película de animación
2012: Satellite Awards: Nominado a Mejor largometraje de animación
2012: National Board of Review (NBR): Mejor largometraje de animación
2012: Producers Guild of America (PGA): Mejor película de animación




Sinopsis.jpg


Durante décadas, Ralph (voz original en inglés de John C. Reilly) ha vivido a la sombra de Repara-Félix Jr., el chico bueno de su videojuego. Cansado de ser el malo de la historia, Ralph decide tomar el asunto por sus propias y gigantes manos, y se lanza en un viaje a través de los distintos mundos y generaciones de videojuegos para demostrarle al mundo que él también puede ser un héroe.




Trailer.jpg






Capturas.jpg


1.jpg


2.jpg


3.jpg


4.jpg


5.jpg


6.jpg


La pelicula NO tiene ninguna marca... solo colocamos el nombre de esta web en las capturas




MediaInfo.jpg


Código:
General
Format                                   : Matroska
Format version                           : Version 2
File size                                : 11.8 GiB
Duration                                 : 1h 41mn
Overall bit rate                         : 16.7 Mbps
Movie name                               : www.club-hd.com
Encoded date                             : UTC 2013-02-17 20:09:46
Writing application                      : mkvmerge v5.7.0 ('The Whirlwind') built on Jul  8 2012 20:08:51
Writing library                          : libebml v1.2.3 + libmatroska v1.3.0

Video
ID                                       : 1
Format                                   : AVC
Format/Info                              : Advanced Video Codec
Format profile                           : [email protected]
Format settings, CABAC                   : Yes
Format settings, ReFrames                : 2 frames
Codec ID                                 : V_MPEG4/ISO/AVC
Duration                                 : 1h 41mn
Bit rate                                 : 13.6 Mbps
Width                                    : 1 920 pixels
Height                                   : 1 080 pixels
Display aspect ratio                     : 16:9
Frame rate mode                          : Constant
Frame rate                               : 23.976 fps
Color space                              : YUV
Chroma subsampling                       : 4:2:0
Bit depth                                : 8 bits
Scan type                                : Progressive
Bits/(Pixel*Frame)                       : 0.273
Stream size                              : 9.61 GiB (81%)
Title                                    : www.club-hd.com
Writing library                          : x264 core
Language                                 : English
Default                                  : Yes
Forced                                   : No
Color primaries                          : BT.709
Transfer characteristics                 : BT.709
Matrix coefficients                      : BT.709

Audio #1
ID                                       : 2
Format                                   : AC-3
Format/Info                              : Audio Coding 3
Mode extension                           : CM (complete main)
Format settings, Endianness              : Big
Codec ID                                 : A_AC3
Duration                                 : 1h 41mn
Bit rate mode                            : Constant
Bit rate                                 : 640 Kbps
Channel(s)                               : 6 channels
Channel positions                        : Front: L C R, Side: L R, LFE
Sampling rate                            : 48.0 KHz
Bit depth                                : 16 bits
Compression mode                         : Lossy
Stream size                              : 463 MiB (4%)
Title                                    : www.club-hd.com  >>  Latino AC3 5.1
Language                                 : Spanish
Default                                  : Yes
Forced                                   : No

Audio #2
ID                                       : 3
Format                                   : AC-3
Format/Info                              : Audio Coding 3
Mode extension                           : CM (complete main)
Format settings, Endianness              : Big
Codec ID                                 : A_AC3
Duration                                 : 1h 41mn
Bit rate mode                            : Constant
Bit rate                                 : 640 Kbps
Channel(s)                               : 6 channels
Channel positions                        : Front: L C R, Side: L R, LFE
Sampling rate                            : 48.0 KHz
Bit depth                                : 16 bits
Compression mode                         : Lossy
Stream size                              : 463 MiB (4%)
Title                                    : www.club-hd.com  >>  Inglés AC3 5.1
Language                                 : English
Default                                  : No
Forced                                   : No

Audio #3
ID                                       : 4
Format                                   : DTS
Format/Info                              : Digital Theater Systems
Mode                                     : 16
Format settings, Endianness              : Big
Codec ID                                 : A_DTS
Duration                                 : 1h 41mn
Bit rate mode                            : Constant
Bit rate                                 : 1 509 Kbps
Channel(s)                               : 6 channels
Channel positions                        : Front: L C R, Side: L R, LFE
Sampling rate                            : 48.0 KHz
Bit depth                                : 24 bits
Compression mode                         : Lossy
Stream size                              : 1.07 GiB (9%)
Title                                    : www.club-hd.com  >>  Inglés DTS 5.1
Language                                 : English
Default                                  : No
Forced                                   : No

Text #1
ID                                       : 5
Format                                   : UTF-8
Codec ID                                 : S_TEXT/UTF8
Codec ID/Info                            : UTF-8 Plain Text
Title                                    : Forzados
Language                                 : Spanish
Default                                  : Yes
Forced                                   : No

Text #2
ID                                       : 6
Format                                   : UTF-8
Codec ID                                 : S_TEXT/UTF8
Codec ID/Info                            : UTF-8 Plain Text
Language                                 : Spanish
Default                                  : No
Forced                                   : No

Text #3
ID                                       : 7
Format                                   : UTF-8
Codec ID                                 : S_TEXT/UTF8
Codec ID/Info                            : UTF-8 Plain Text
Language                                 : English
Default                                  : No
Forced                                   : No

Menu
00:00:00.000                             : en:00:00:00.000
00:07:12.140                             : en:00:07:12.140
00:16:34.910                             : en:00:16:34.910
00:27:07.501                             : en:00:27:07.501
00:37:25.952                             : en:00:37:25.952
00:44:46.684                             : en:00:44:46.684
00:48:45.130                             : en:00:48:45.130
00:51:36.009                             : en:00:51:36.009
00:58:56.032                             : en:00:58:56.032
01:09:07.893                             : en:01:09:07.893
01:13:39.623                             : en:01:13:39.623
01:15:56.802                             : en:01:15:56.802
01:18:52.978                             : en:01:18:52.978
01:21:53.742                             : en:01:21:53.742
01:27:25.365                             : en:01:27:25.365
01:33:10.543                             : en:01:33:10.543




Descarga.jpg




google-drive-vip.png


Tenemos TODO el material de Club-HD disponible por Mega, enlaces 100% activos y online hasta la fecha

Llévate tus cuentas Mega PRO III gratis con tu membresía VIP!
Todos los posts vivos con links de Mega.
Todo el material de Club-HD desbloqueado y sin publicidad.

Obtén más información sobre nuestras Membresías VIP




MEGA.jpg

Tenemos TODO el material de Club-HD disponible por Mega, enlaces 100% activos y online hasta la fecha

Llévate tus cuentas Mega PRO III gratis con tu membresía VIP!
Todos los posts vivos con links de Mega.
Todo el material de Club-HD desbloqueado y sin publicidad.

Obtén más información sobre nuestras Membresías VIP



UPLOADED_BANNER.png

Para ver este contenido oculto, debes dar click en el botón"Like", o cualquiera de las otras reacciones:

Me Gusta Me Gusta, Me Encanta Me Encanta, Jaja Jaja, Wow Wow, Triste Triste, Molesto Molesto

 
Última edición por un moderador:
3D Lo mejor Maestro pero me quedo con la 720p xD, y como siempre digo, eres el maestro de maestros
 
que excelente calidad, de hecho ahorita la acabo de ver nuevamente en 1080p gracias a ti revolver, ojala algun dia compre una tv de 3d para volver a experimentar esta movie, saludos
 
Eres dinamita nenaaaaARB_1 !!!! que excelente frase , gracias por esta tremenda peli , la fui a ver al cine con mi bestia y ya la estamos viendo nuevamente gracias a ti , gracias R21 ya no hay palabras de agradecimiento este club esta cada dia mejor !!!!:dplgar::dplgar::dplgar:
 
Lo esperado Gracias R21 sabia que no dejarías de postearlo en 3D . saludos
 
Volver