Wrong Turn 5 (2012) 720p Dual Latino-Inglés [Subt. Esp] (Terror)

Maestro Revolver

Well-known member
Miembro del Staff
Administrador
Registro
9 Ago 2012
Mensajes
3.569
Reacciones
59.366
Puntos
113

Reputation:









TÍTULO ORIGINAL: Wrong Turn 5
AÑO: 2012
PAÍS: USA
DIRECTOR: Declan O'Brien
GUIÓN: Declan O'Brien
REPARTO: Roxanne McKee, Camilla Arfwedson, Simon Ginty, Oliver Hoare, Amy Lennox, Pablo Luebke, Duncan Wisbey, Kyle Redmond-Jones, Peter Brooke, Rosie Holden, Bobby Iliev, George Karloukovski, Radoslav Purvanov, Doug Bradley
PRODUCTORA: 20th Century Fox Home Entertainment / Summit Entertainment / Constantin Film Produktion
GÉNERO: Terror | Slasher. Secuela
http://www.imdb.com/title/tt2375779/






En una pequeña ciudad de Virginia Occidental, tiene lugar el Mountain Man Festival el día de Halloween, donde una multitud de excursionistas acuden a la fiesta, disfrazados y listos para pasar una noche salvaje con música y diversión. Pero una familia endogámica de caníbales les aguará la fiesta.
























La pelicula NO tiene ninguna marca... solo colocamos el nombre de esta web en las capturas






Código:
General
Format                           : Matroska
Format version                   : Version 2
File size                        : 3.90 GiB
Duration                         : 1h 30mn
Overall bit rate                 : 6 143 Kbps
Movie name                       : www.club-hd.com
Encoded date                     : UTC 2012-10-27 15:22:50
Writing application              : mkvmerge v5.7.0 ('The Whirlwind') built on Jul  8 2012 20:08:51
Writing library                  : libebml v1.2.3 + libmatroska v1.3.0

Video
ID                               : 1
Format                           : AVC
Format/Info                      : Advanced Video Codec
Format profile                   : High@L4.1
Format settings, CABAC           : Yes
Format settings, ReFrames        : 5 frames
Codec ID                         : V_MPEG4/ISO/AVC
Duration                         : 1h 30mn
Bit rate                         : 5 380 Kbps
Width                            : 1 280 pixels
Height                           : 720 pixels
Display aspect ratio             : 16:9
Frame rate                       : 23.976 fps
Color space                      : YUV
Chroma subsampling               : 4:2:0
Bit depth                        : 8 bits
Scan type                        : Progressive
Bits/(Pixel*Frame)               : 0.243
Stream size                      : 3.33 GiB (86%)
Title                            : www.club-hd.com
Writing library                  : x264 core 128 r2216kMod 198a7ea
Language                         : English
Default                          : Yes
Forced                           : No

Audio #1
ID                               : 2
Format                           : AC-3
Format/Info                      : Audio Coding 3
Mode extension                   : CM (complete main)
Codec ID                         : A_AC3
Duration                         : 1h 30mn
Bit rate mode                    : Constant
Bit rate                         : 384 Kbps
Channel(s)                       : 6 channels
Channel positions                : Front: L C R, Side: L R, LFE
Sampling rate                    : 48.0 KHz
Bit depth                        : 16 bits
Compression mode                 : Lossy
Stream size                      : 249 MiB (6%)
Title                            : www.club-hd.com  >>  Latino
Language                         : Spanish
Default                          : Yes
Forced                           : No

Audio #2
ID                               : 3
Format                           : AC-3
Format/Info                      : Audio Coding 3
Mode extension                   : CM (complete main)
Codec ID                         : A_AC3
Duration                         : 1h 30mn
Bit rate mode                    : Constant
Bit rate                         : 384 Kbps
Channel(s)                       : 6 channels
Channel positions                : Front: L C R, Side: L R, LFE
Sampling rate                    : 48.0 KHz
Bit depth                        : 16 bits
Compression mode                 : Lossy
Stream size                      : 249 MiB (6%)
Title                            : www.club-hd.com  >>  Inglés
Language                         : English
Default                          : No
Forced                           : No

Text
ID                               : 4
Format                           : UTF-8
Codec ID                         : S_TEXT/UTF8
Codec ID/Info                    : UTF-8 Plain Text
Language                         : Spanish
Default                          : No
Forced                           : No

Menu
00:00:00.000                     : en:00:00:00.000
00:03:35.006                     : en:00:03:35.006
00:06:41.109                     : en:00:06:41.109
00:09:45.293                     : en:00:09:45.293
00:13:38.526                     : en:00:13:38.526
00:16:56.474                     : en:00:16:56.474
00:18:38.909                     : en:00:18:38.909
00:22:32.893                     : en:00:22:32.893
00:26:03.437                     : en:00:26:03.437
00:29:27.224                     : en:00:29:27.224
00:34:49.838                     : en:00:34:49.838
00:39:19.440                     : en:00:39:19.440
00:44:08.646                     : en:00:44:08.646
00:48:06.217                     : en:00:48:06.217
00:53:11.814                     : en:00:53:11.814
00:59:35.197                     : en:00:59:35.197
01:03:13.123                     : en:01:03:13.123
01:06:56.304                     : en:01:06:56.304
01:09:44.639                     : en:01:09:44.639
01:12:32.640                     : en:01:12:32.640
01:17:43.701                     : en:01:17:43.701
01:19:31.767                     : en:01:19:31.767
01:20:46.842                     : en:01:20:46.842
01:26:21.802                     : en:01:26:21.802










Enlaces de Mega y Fireload solo disponibles para Miembros VIP

Compra tu Membresía VIP y apoya a Club-HD!

ATENCIÓN! Tenemos TODO el material de Club-HD disponible por Mega y Fireload, enlaces 100% activos y online hasta la fecha

Llévate tus cuentas Mega PRO II gratis con tu membresía VIP!
Todos los posts vivos con links de Mega y Fireload.
Todo el material de Club-HD desbloqueado y sin publicidad.

Click Aquí para más información.




Enlaces de Mega y Fireload solo disponibles para Miembros VIP

Compra tu Membresía VIP y apoya a Club-HD!

ATENCIÓN! Tenemos TODO el material de Club-HD disponible por Mega y Fireload, enlaces 100% activos y online hasta la fecha

Llévate tus cuentas Mega PRO II gratis con tu membresía VIP!
Todos los posts vivos con links de Mega y Fireload.
Todo el material de Club-HD desbloqueado y sin publicidad.

Click Aquí para más información.



Enlaces de Mega y Fireload solo disponibles para Miembros VIP

Compra tu Membresía VIP y apoya a Club-HD!

ATENCIÓN! Tenemos TODO el material de Club-HD disponible por Mega y Fireload, enlaces 100% activos y online hasta la fecha

Llévate tus cuentas Mega PRO II gratis con tu membresía VIP!
Todos los posts vivos con links de Mega y Fireload.
Todo el material de Club-HD desbloqueado y sin publicidad.

Click Aquí para más información.



Para ver este contenido oculto, debes dar click en una de las siguientes reacciones : Like Like, Love Love, Haha Haha, Wow Wow, Sad Sad, Angry Angry
 
Última edición:

Omar Herrera

Well-known member
Miembro del Staff
Súper Moderador
Registro
27 Ago 2012
Mensajes
1.234
Reacciones
325
Puntos
83
Edad
32
Ubicación
Managua

Reputation:

y las otras 4 amigo :(
Excelente trabajo Revolver!
Eres el mejor ;)
 

Max

Admin
Miembro del Staff
Administrador
Registro
8 Ago 2012
Mensajes
5.593
Reacciones
23.794
Puntos
113
Ubicación
Disco C

Reputation:

A mi me fascina esta saga, asi yo me comprometo a traerselas mis muchachos. Solo esperenme un tiempo. d4nce2elaporte:thank-you:guit4r_2
 

eljumachi

Well-known member
Miembro VIP
Registro
27 Ago 2012
Mensajes
2.174
Reacciones
339
Puntos
83

Reputation:

De las que me fascinan muchas gracias R-21, tal ves sube la saga completa, Saludos
 

Omar Herrera

Well-known member
Miembro del Staff
Súper Moderador
Registro
27 Ago 2012
Mensajes
1.234
Reacciones
325
Puntos
83
Edad
32
Ubicación
Managua

Reputation:

A mi me fascina esta saga, asi yo me comprometo a traerselas mis muchachos. Solo esperenme un tiempo. d4nce2elaporte:thank-you:guit4r_2

Max Max Max Max!
que es eso en el cielo?... Es un Ave! Es un Avion! NO!!! Es MAAAAAAAAAAAAAAX Ne0
 

frikimanmx

Active member
Registro
27 Ago 2012
Mensajes
235
Reacciones
34
Puntos
28

Reputation:

te pasaste revolver, llevaba rato esperandola (el dvd primero pero no, me espere mejor :) ) y mejor esta en 720p, tengos las otras 4 pero en dvdrip :( esta sera la 1a en HD
 

Yonatan

Admin
Miembro del Staff
Administrador
Registro
27 Ago 2012
Mensajes
1.768
Reacciones
3.730
Puntos
113
Edad
28
Ubicación
Chile, Sexta Región

Reputation:

wuoo no sabia que habia 5 parte de esta saga
terminando de descargar algunas peliculas descargo esta grande mastro :dplgar:
 

Nosferatu

Well-known member
Súper Moderador
Registro
31 Ago 2012
Mensajes
2.275
Reacciones
1.362
Puntos
113
Edad
44
Ubicación
Welcome to Hell!!

Reputation:

OK. otro estreno excelente como siempre una maquina MAESTRO R21 GRACIAS!:LXR::aplausos:
A mi me fascina esta saga, asi yo me comprometo a traerselas mis muchachos. Solo esperenme un tiempo. d4nce2elaporte:thank-you:guit4r_2
GRACIAS MAX! las estaremos esperando.:dplgar:
 

Usuarios Que Están Viendo Este Tema (Total: 1, Miembros: 0, Invitados: 1)

Arriba