• Buenos dias amigos del club. Les queremos avisar que ya recuperamos el acceso a las webs de las Membresías VIP y del Paste. Asi que ya pueden comprar sus membresías y descargar todos los estrenos nuevamente.

You're Next (2011) 720p BDRip Dual Latino-Inglés [Subt. Esp] (Terror. Thriller)

Maestro Revolver

Administrador
Registro
9 Ago 2012
Mensajes
3.157
Reacciones (ptje)
55.343


You%27re-Next.jpg




FichaTecnica.jpg


TÍTULO ORIGINAL: You're Next
AÑO: 2011
DURACIÓN: 112 min.
PAÍS: USA
DIRECTOR: Adam Wingard
GUIÓN: Adam Wingard
REPARTO: Sharni Vinson, Nicholas Tucci, Wendy Glenn, AJ Bowen, Joe Swanberg, Sarah Myers, Amy Seimetz, Rob Moran, Barbara Crampton, Ti West, Simon Barrett, LC Holt
PRODUCTORA: HanWay Films / Snoot Entertainment
GÉNERO: Terror. Thriller | Slasher. Cine independiente USA. Mumblecore
imdb-logo.png
: http://www.imdb.com/title/tt1853739/

Premios: 2011: Fantastic Fest: Mejor película de terror, director, guión y actriz (Vinson)




Sinopsis.jpg


La familia Davison es atacada por un grupo de asesinos sádicos durante una escapada familiar. Atrincherados en la casa de vacaciones, hacen frente a los asaltantes. Los asesinos enmascarados no contaban con la presencia de Erin, la novia del hijo mayor de los Davison, cuyo misterioso pasado la ha hecho fuerte y muy difícil de matar.




Trailer.jpg






Capturas.jpg


1.jpg


2.jpg


3.jpg


4.jpg


5.jpg


6.jpg


La pelicula NO tiene ninguna marca... solo colocamos el nombre de esta web en las capturas




MediaInfo.jpg


Código:
General
Format                                   : Matroska
Format version                           : Version 2
File size                                : 2.44 GiB
Duration                                 : 1h 34mn
Overall bit rate                         : 3 702 Kbps
Movie name                               : www.club-hd.com
Encoded date                             : UTC 2014-01-11 15:27:25
Writing application                      : mkvmerge v5.7.0 ('The Whirlwind') built on Jul  8 2012 20:08:51
Writing library                          : libebml v1.2.3 + libmatroska v1.3.0

Video
ID                                       : 1
Format                                   : AVC
Format/Info                              : Advanced Video Codec
Format profile                           : [email protected]
Format settings, CABAC                   : Yes
Format settings, ReFrames                : 6 frames
Muxing mode                              : Header stripping
Codec ID                                 : V_MPEG4/ISO/AVC
Duration                                 : 1h 34mn
Bit rate                                 : 2 348 Kbps
Width                                    : 1 280 pixels
Height                                   : 534 pixels
Display aspect ratio                     : 2.40:1
Frame rate mode                          : Constant
Frame rate                               : 23.976 fps
Color space                              : YUV
Chroma subsampling                       : 4:2:0
Bit depth                                : 8 bits
Scan type                                : Progressive
Bits/(Pixel*Frame)                       : 0.143
Stream size                              : 1.55 GiB (63%)
Title                                    : www.club-hd.com
Writing library                          : x264 core 138 r2358 9e941d1
Language                                 : English
Default                                  : Yes
Forced                                   : No

Audio #1
ID                                       : 2
Format                                   : AC-3
Format/Info                              : Audio Coding 3
Mode extension                           : CM (complete main)
Format settings, Endianness              : Big
Muxing mode                              : Header stripping
Codec ID                                 : A_AC3
Duration                                 : 1h 34mn
Bit rate mode                            : Constant
Bit rate                                 : 640 Kbps
Channel(s)                               : 6 channels
Channel positions                        : Front: L C R, Side: L R, LFE
Sampling rate                            : 48.0 KHz
Bit depth                                : 16 bits
Compression mode                         : Lossy
Stream size                              : 432 MiB (17%)
Title                                    : www.club-hd.com  >>  Latino
Language                                 : Spanish
Default                                  : Yes
Forced                                   : No

Audio #2
ID                                       : 3
Format                                   : AC-3
Format/Info                              : Audio Coding 3
Mode extension                           : CM (complete main)
Format settings, Endianness              : Big
Muxing mode                              : Header stripping
Codec ID                                 : A_AC3
Duration                                 : 1h 34mn
Bit rate mode                            : Constant
Bit rate                                 : 640 Kbps
Channel(s)                               : 6 channels
Channel positions                        : Front: L C R, Side: L R, LFE
Sampling rate                            : 48.0 KHz
Bit depth                                : 16 bits
Compression mode                         : Lossy
Stream size                              : 432 MiB (17%)
Title                                    : www.club-hd.com  >>  Inglés
Language                                 : English
Default                                  : No
Forced                                   : No

Text
ID                                       : 4
Format                                   : UTF-8
Codec ID                                 : S_TEXT/UTF8
Codec ID/Info                            : UTF-8 Plain Text
Language                                 : Spanish
Default                                  : No
Forced                                   : No

Menu
00:00:00.000                             : en:00:00:00.000
00:04:26.016                             : en:00:04:26.016
00:15:08.366                             : en:00:15:08.366
00:22:49.868                             : en:00:22:49.868
00:33:38.850                             : en:00:33:38.850
00:44:59.822                             : en:00:44:59.822
00:54:07.995                             : en:00:54:07.995
01:01:25.682                             : en:01:01:25.682
01:11:12.018                             : en:01:11:12.018
01:17:46.078                             : en:01:17:46.078
01:24:08.126                             : en:01:24:08.126
01:31:24.979                             : en:01:31:24.979




Descarga.jpg



MEGA.jpg

Tenemos TODO el material de Club-HD disponible por Mega, enlaces 100% activos y online hasta la fecha

Llévate tus cuentas Mega PRO III gratis con tu membresía VIP!
Todos los posts vivos con links de Mega.
Todo el material de Club-HD desbloqueado y sin publicidad.

Obtén más información sobre nuestras Membresías VIP



UPLOADED_BANNER.png

Para ver este contenido oculto, debes dar click en el botón"Like", o cualquiera de las otras reacciones:

Me Gusta Me Gusta, Me Encanta Me Encanta, Jaja Jaja, Wow Wow, Triste Triste, Molesto Molesto

 
Última edición por un moderador:
Desc_g_

Esta semana ha sido de estrenos :OHHH:

Me la llevo a ver que tal esta aunque se me hace que va a estar mala :/

Muchas Gracias!!!

Saludos :D
 
Muchisimas Gracias Revolver!!!


Siíííí!!! Esto no puede fallar una reunión familiar es interrumpida por un grupo de asesinos enmascarados!!! Listo terror del clásico!!! Hurr4h


Otros asesinos detrás de una mascarita son:

-Leatherface (La Masacre de Texas 1974)
-Michael Myers (Halloween 1978)
-The Scarecrow (La Noche del Espantapájaros 1981)
-Ghostface (Scream 1996)
-Jigsaw Pig (Saw 2004)
-El Hombre de la Mascara, Dollface y Pin-Up (The Strangers 2008)

.......y la lista sigueee.........a me olvidaba de uno de los más importantes asesinos seriales de la historia, El Mas Grande de Todos: "Jason Voorhees" y aqui un recorrido por todas sus máscaras:

526662dz.jpg


Saludos.bye
 
Volver