Zambezia (2012) 720p BDRip Dual Latino-Inglés [Subt. Esp] (Animación)

Maestro Revolver

Administrador
Registro
9 Ago 2012
Mensajes
3.157
Reacciones (ptje)
54.886


Zambezia.jpg




FichaTecnica.jpg


TÍTULO ORIGINAL: Zambezia
AÑO: 2012
DURACIÓN: 83 min.
PAÍS: Sudáfrica
DIRECTOR: Wayne Thornley
GUIÓN: Anthony Silverston
REPARTO: Animation
PRODUCTORA: Triggerfish Animation
GÉNERO: Animación. Aventuras | Pájaros. 3-D
imdb-logo.png
: http://www.imdb.com/title/tt1488181/


Premios: 2012: Premios Annie: Nominada a Mejor doblaje y mejor música





Sinopsis.jpg


Zambezia se centra en Aero, un joven halcón que viaja a la ciudad de las aves más famosa: Zambezia. Su objetivo es ambicioso; espera convertirse allí en alguien importante. Sin embargo, pronto comprueba que puede llegar a ser más díficil sobrevivir en una gran ciudad que en la naturaleza.




Trailer.jpg






Capturas.jpg


1.jpg


2.jpg


3.jpg


4.jpg


5.jpg


6.jpg


La pelicula NO tiene ninguna marca... solo colocamos el nombre de esta web en las capturas




MediaInfo.jpg


Código:
General
Format                                   : Matroska
Format version                           : Version 2
File size                                : 3.98 GiB
Duration                                 : 1h 22mn
Overall bit rate                         : 6 915 Kbps
Movie name                               : www.club-hd.com
Encoded date                             : UTC 2013-04-22 22:38:53
Writing application                      : mkvmerge v5.7.0 ('The Whirlwind') built on Jul  8 2012 20:08:51
Writing library                          : libebml v1.2.3 + libmatroska v1.3.0

Video
ID                                       : 1
Format                                   : AVC
Format/Info                              : Advanced Video Codec
Format profile                           : [email protected]
Format settings, CABAC                   : Yes
Format settings, ReFrames                : 5 frames
Codec ID                                 : V_MPEG4/ISO/AVC
Duration                                 : 1h 22mn
Bit rate                                 : 6 084 Kbps
Width                                    : 1 280 pixels
Height                                   : 688 pixels
Display aspect ratio                     : 1.85:1
Frame rate mode                          : Constant
Frame rate                               : 23.976 fps
Color space                              : YUV
Chroma subsampling                       : 4:2:0
Bit depth                                : 8 bits
Scan type                                : Progressive
Bits/(Pixel*Frame)                       : 0.288
Stream size                              : 3.42 GiB (86%)
Title                                    : www.club-hd.com
Writing library                          : x264 core 125 r2200 999b753
Language                                 : English
Default                                  : Yes
Forced                                   : No

Audio #1
ID                                       : 2
Format                                   : AC-3
Format/Info                              : Audio Coding 3
Mode extension                           : CM (complete main)
Format settings, Endianness              : Big
Codec ID                                 : A_AC3
Duration                                 : 1h 22mn
Bit rate mode                            : Constant
Bit rate                                 : 384 Kbps
Channel(s)                               : 6 channels
Channel positions                        : Front: L C R, Side: L R, LFE
Sampling rate                            : 48.0 KHz
Bit depth                                : 16 bits
Compression mode                         : Lossy
Stream size                              : 226 MiB (6%)
Title                                    : www.club-hd.com  >>  Latino
Language                                 : Spanish
Default                                  : Yes
Forced                                   : No

Audio #2
ID                                       : 3
Format                                   : AC-3
Format/Info                              : Audio Coding 3
Mode extension                           : CM (complete main)
Format settings, Endianness              : Big
Codec ID                                 : A_AC3
Duration                                 : 1h 22mn
Bit rate mode                            : Constant
Bit rate                                 : 448 Kbps
Channel(s)                               : 6 channels
Channel positions                        : Front: L C R, Side: L R, LFE
Sampling rate                            : 48.0 KHz
Bit depth                                : 16 bits
Compression mode                         : Lossy
Stream size                              : 264 MiB (6%)
Title                                    : www.club-hd.com  >>  Inglés
Language                                 : English
Default                                  : No
Forced                                   : No

Text
ID                                       : 4
Format                                   : UTF-8
Codec ID                                 : S_TEXT/UTF8
Codec ID/Info                            : UTF-8 Plain Text
Language                                 : Spanish
Default                                  : No
Forced                                   : No

Menu
00:00:00.000                             : en:00:00:00.000
00:04:46.495                             : en:00:04:46.495
00:08:27.257                             : en:00:08:27.257
00:12:58.486                             : en:00:12:58.486
00:18:24.562                             : en:00:18:24.562
00:25:37.536                             : en:00:25:37.536
00:30:46.762                             : en:00:30:46.762
00:38:11.247                             : en:00:38:11.247
00:43:55.383                             : en:00:43:55.383
00:46:52.393                             : en:00:46:52.393
00:50:51.757                             : en:00:50:51.757
00:55:05.385                             : en:00:55:05.385
01:00:01.431                             : en:01:00:01.431
01:06:04.836                             : en:01:06:04.836
01:12:11.410                             : en:01:12:11.410
01:16:37.218                             : en:01:16:37.218




Descarga.jpg



MEGA.jpg

Tenemos TODO el material de Club-HD disponible por Mega, enlaces 100% activos y online hasta la fecha

Llévate tus cuentas Mega PRO III gratis con tu membresía VIP!
Todos los posts vivos con links de Mega.
Todo el material de Club-HD desbloqueado y sin publicidad.

Obtén más información sobre nuestras Membresías VIP



UPLOADED_BANNER.png

Para ver este contenido oculto, debes dar click en el botón"Like", o cualquiera de las otras reacciones:

Me Gusta Me Gusta, Me Encanta Me Encanta, Jaja Jaja, Wow Wow, Triste Triste, Molesto Molesto

 
Última edición por un moderador:
Muchísimas gracias genio!!! :dplgar::dplgar: A los sobrinos les va a encantar! :D Un espectáculo lo tuyo! :aplausos: Un abrazo.... Saludos bye
 
esta no me es familiar, pero siempre hay que ver y tener peliculas nuevas asi que me la bajo despues de unas otras que tengo en mi lista xD

gracias master y saludos
 
como siempre te daré la gracias !aun estoy esperando que me llegue mas plata depositar mas y de esta forma agradecerles por sus aportes
 
Volver