Zero Dark Thirty (2012) m-720p BDRip Dual Latino-Inglés [Subt. Esp] (Thriller. Acción. Drama)

Maestro Revolver

Well-known member
Miembro del Staff
Administrador
Registro
9 Ago 2012
Mensajes
3.567








TÍTULO ORIGINAL: Zero Dark Thirty
AÑO: 2012
DURACIÓN: 157 min.
PAÍS: USA
DIRECTOR: Kathryn Bigelow
GUIÓN: Mark Boal
REPARTO: Jessica Chastain, Joel Edgerton, Taylor Kinney, Kyle Chandler, Jennifer Ehle, Mark Strong, Chris Pratt, Mark Duplass, Harold Perrineau, Jason Clarke, Édgar Ramírez, Scott Adkins, Frank Grillo, Lee Asquith-Coe, Fredric Lehne, James Gandolfini, Reda Kateb, Fares Fares, Stephen Dillane
PRODUCTORA: Columbia Pictures / Annapurna Pictures
GÉNERO: Thriller. Acción. Drama | Terrorismo. 11-S. Basado en hechos reales
: http://www.imdb.com/title/tt1790885/

PREMIOS: 2012: Oscar: Mejor montaje de sonido (ex-aequo). 5 nominaciones.
2012: Globos de Oro: Mejor actriz dramática (Chastain). 4 nominaciones
2012: Critics Choice Awards: Mejor actriz (Chastain) y mejor montaje. 5 nominaciones
2012: Premios BAFTA: 5 nominaciones, incluyendo mejor película y actriz
2012: National Board of Review (NBR): Mejor película, director y actriz (Chastain)
2012: Círculo de Críticos de Nueva York: Mejor película, dirección y fotografía
2012: Satellite Awards: Mejor guión original. 5 nominaciones, incluyendo Mejor película
2012: Asociación de Críticos de Los Angeles: Mejor montaje
2012: American Film Institute: Top 10 - Mejores películas del año
2012: Directors Guild of America (DGA): Nominada a Mejor director






Thriller sobre la operación militar que acabó con la vida de Osama Bin Laden, líder de Al Quaeda. El título original, Zero Dark Thirty hace referencia a la hora: las 00:30 de la madrugada del 1 de mayo de 2011, momento en que el comando SEAL de los marines penetró en la residencia de Bin Laden en Pakistán para eliminar al hombre más buscado de la historia.
























La pelicula NO tiene ninguna marca... solo colocamos el nombre de esta web en las capturas





Código:
General
Format                                   : Matroska
Format version                           : Version 2
File size                                : 4.22 GiB
Duration                                 : 2h 36mn
Overall bit rate                         : 3 852 Kbps
Movie name                               : www.club-hd.com
Encoded date                             : UTC 2013-08-03 00:08:32
Writing application                      : mkvmerge v5.7.0 ('The Whirlwind') built on Jul  8 2012 20:08:51
Writing library                          : libebml v1.2.3 + libmatroska v1.3.0

Video
ID                                       : 1
Format                                   : AVC
Format/Info                              : Advanced Video Codec
Format profile                           : High@L4.1
Format settings, CABAC                   : Yes
Format settings, ReFrames                : 9 frames
Codec ID                                 : V_MPEG4/ISO/AVC
Duration                                 : 2h 36mn
Bit rate                                 : 2 826 Kbps
Width                                    : 1 280 pixels
Height                                   : 692 pixels
Display aspect ratio                     : 1.85:1
Frame rate mode                          : Constant
Frame rate                               : 23.976 fps
Color space                              : YUV
Chroma subsampling                       : 4:2:0
Bit depth                                : 8 bits
Scan type                                : Progressive
Bits/(Pixel*Frame)                       : 0.133
Stream size                              : 3.02 GiB (71%)
Title                                    : www.club-hd.com
Writing library                          : x264 core 130 r2273 b3065e6
Language                                 : English
Default                                  : Yes
Forced                                   : No

Audio #1
ID                                       : 2
Format                                   : AC-3
Format/Info                              : Audio Coding 3
Mode extension                           : CM (complete main)
Format settings, Endianness              : Big
Codec ID                                 : A_AC3
Duration                                 : 2h 36mn
Bit rate mode                            : Constant
Bit rate                                 : 384 Kbps
Channel(s)                               : 6 channels
Channel positions                        : Front: L C R, Side: L R, LFE
Sampling rate                            : 48.0 KHz
Bit depth                                : 16 bits
Compression mode                         : Lossy
Delay relative to video                  : 24ms
Stream size                              : 431 MiB (10%)
Title                                    : www.club-hd.com  >>  Latino
Language                                 : Spanish
Default                                  : Yes
Forced                                   : No

Audio #2
ID                                       : 3
Format                                   : AC-3
Format/Info                              : Audio Coding 3
Mode extension                           : CM (complete main)
Format settings, Endianness              : Big
Codec ID                                 : A_AC3
Duration                                 : 2h 36mn
Bit rate mode                            : Constant
Bit rate                                 : 640 Kbps
Channel(s)                               : 6 channels
Channel positions                        : Front: L C R, Side: L R, LFE
Sampling rate                            : 48.0 KHz
Bit depth                                : 16 bits
Compression mode                         : Lossy
Stream size                              : 719 MiB (17%)
Title                                    : www.club-hd.com  >>  Inglés
Language                                 : English
Default                                  : No
Forced                                   : No

Text
ID                                       : 4
Format                                   : UTF-8
Codec ID                                 : S_TEXT/UTF8
Codec ID/Info                            : UTF-8 Plain Text
Language                                 : Spanish
Default                                  : No
Forced                                   : No

Menu
00:00:00.000                             : en:Chapter 1
00:09:50.298                             : en:Chapter 2
00:15:42.650                             : en:Chapter 3
00:23:05.884                             : en:Chapter 4
00:31:23.048                             : en:Chapter 5
00:41:35.201                             : en:Chapter 6
00:50:30.694                             : en:Chapter 7
01:04:11.806                             : en:Chapter 8
01:13:37.705                             : en:Chapter 9
01:20:27.656                             : en:Chapter 10
01:34:05.849                             : en:Chapter 11
01:46:46.191                             : en:Chapter 12
01:53:17.332                             : en:Chapter 13
02:02:37.725                             : en:Chapter 14
02:14:08.874                             : en:Chapter 15
02:22:34.588                             : en:Chapter 16








Enlaces de Mega y Google Drive solo disponibles para Miembros VIP

Compra tu Membresía VIP y apoya a Club-HD!

ATENCIÓN! Tenemos TODO el material de Club-HD disponible por Mega y Google Drive, enlaces 100% activos y online hasta la fecha

Llévate tus cuentas Mega PRO III gratis con tu membresía VIP!
Todos los posts vivos con links de Mega y Google Drive.
Todo el material de Club-HD desbloqueado y sin publicidad.

Click Aquí para más información.



Para ver este contenido oculto, debes dar click en una de las siguientes reacciones : Like Like, Love Love, Haha Haha, Wow Wow, Sad Sad, Angry Angry
 
Última edición por un moderador:

Usuarios Que Están Viendo Este Tema (Total: 1, Miembros: 0, Invitados: 1)

Quién Leyó Este Tema (Total Miembros: 3)

Arriba