AC/DC - Live At River Plate (2011) 720p BDRip [AC3 5.1] [DTS] (Concierto)

Max

Admin

Administrador
Registro
8 Ago 2012
Mensajes
6.167
Reacciones (ptje)
26.845

ACDC-Live_At_River_Plate_2011_720p_POSTER.jpg



AC/DC Live At River Plate captura la intensidad y el poder de la aclamada gira de la banda presentando el disco Black Ice, el cual debutó #1 en 31 países. The Black Ice World Tour llevó a AC/DC a un viaje de 20 meses alrededor del mundo, presentándose ante más de 5 millones de fans en 108 ciudades a lo largo de 28 países. The Black Ice World Tour le valió a AC/DC el Premio Pollstar por Tour del Año 2011.




LISTA_DE_TEMAS.png


01. Rock N Roll Train
02. Hell Ain’t A Bad Place To Be
03. Back In Black
04. Big Jack
05. Dirty Deeds Done Dirt Cheap
06. Shot Down In Flames
07. Thunderstruck
08. Black Ice
09. The Jack
10. Hells Bells
11. Shoot To Thrill
12. War Machine
13. Dog Eat Dog
14. You Shook Me All Night Long
15. T.N.T.
16. Whole Lotta Rosie
17. Let There Be Rock
18. Highway To Hell
19. For Those About To Rock (We Salute You)




YOUTUBE_LOGO.png






CAPTURAS.png


ACDC_Live_At_River_Plate_2011_720p_CAPTURA-1.jpg


ACDC_Live_At_River_Plate_2011_720p_CAPTURA-2.jpg


ACDC_Live_At_River_Plate_2011_720p_CAPTURA-3.jpg


ACDC_Live_At_River_Plate_2011_720p_CAPTURA-4.jpg


ACDC_Live_At_River_Plate_2011_720p_CAPTURA-5.jpg


ACDC_Live_At_River_Plate_2011_720p_CAPTURA-6.jpg


ACDC_Live_At_River_Plate_2011_720p_CAPTURA-7.jpg





DATOS_TECNICOS.png


Código:
General
Complete name : ACDC - Live At River Plate [2011] 720p.mkv
Format : Matroska
Format version : Version 2
File size : 8.22 GiB
Duration : 1h 51mn
Overall bit rate : 10.5 Mbps
Movie name : www.club-hd.com
Encoded date : UTC 2012-04-22 01:30:16
Writing application : mkvmerge v5.2.0 ('I can't explain') built on Dec 18 2011 18:12:03
Writing library : libebml v1.2.3 + libmatroska v1.3.0

Video
ID : 1
Format : AVC
Format/Info : Advanced Video Codec
Format profile : [email protected]
Format settings, CABAC : Yes
Format settings, ReFrames : 5 frames
Muxing mode : Header stripping
Codec ID : V_MPEG4/ISO/AVC
Duration : 1h 51mn
Bit rate : 8 400 Kbps
Width : 1 280 pixels
Height : 720 pixels
Display aspect ratio : 16:9
Frame rate : 23.976 fps
Color space : YUV
Chroma subsampling : 4:2:0
Bit depth : 8 bits
Scan type : Progressive
Bits/(Pixel*Frame) : 0.380
Stream size : 6.38 GiB (78%)
Title : www.club-hd.com
Writing library : x264 core 114 r1924 08d04a4
Encoding settings : cabac=1 / ref=5 / deblock=1:-3:-3 / analyse=0x3:0x113 / me=umh / subme=10 / psy=1 / psy_rd=1.00:0.00 / mixed_ref=1 / me_range=24 / chroma_me=1 / trellis=2 / 8x8dct=1 / cqm=0 / deadzone=21,11 / fast_pskip=1 / chroma_qp_offset=-2 / threads=12 / sliced_threads=0 / nr=0 / decimate=1 / interlaced=0 / constrained_intra=0 / bframes=8 / b_pyramid=2 / b_adapt=2 / b_bias=0 / direct=3 / weightb=1 / open_gop=0 / weightp=2 / keyint=250 / keyint_min=23 / scenecut=40 / intra_refresh=0 / rc_lookahead=60 / rc=2pass / mbtree=1 / bitrate=8400 / ratetol=1.0 / qcomp=0.60 / qpmin=0 / qpmax=69 / qpstep=4 / cplxblur=20.0 / qblur=0.5 / vbv_maxrate=50000 / vbv_bufsize=50000 / nal_hrd=none / ip_ratio=1.40 / aq=1:0.80
Language : English
Default : Yes
Forced : No

Audio #1
ID : 2
Format : AC-3
Format/Info : Audio Coding 3
Mode extension : CM (complete main)
Muxing mode : Header stripping
Codec ID : A_AC3
Duration : 1h 51mn
Bit rate mode : Constant
Bit rate : 640 Kbps
Channel(s) : 6 channels
Channel positions : Front: L C R, Side: L R, LFE
Sampling rate : 48.0 KHz
Bit depth : 16 bits
Compression mode : Lossy
Stream size : 511 MiB (6%)
Title : www.club-hd.com_AC3
Language : English
Default : Yes
Forced : No

Audio #2
ID : 3
Format : DTS
Format/Info : Digital Theater Systems
Muxing mode : Header stripping
Codec ID : A_DTS
Duration : 1h 51mn
Bit rate mode : Constant
Bit rate : 1 510 Kbps
Channel(s) : 6 channels
Channel positions : Front: L C R, Side: L R, LFE
Sampling rate : 48.0 KHz
Bit depth : 24 bits
Compression mode : Lossy
Stream size : 1.18 GiB (14%)
Title : www.club-hd.com_DTS
Language : English
Default : No
Forced : No




DESCARGA.png




google-drive-vip.png


Tenemos TODO el material de Club-HD disponible por Mega, enlaces 100% activos y online hasta la fecha

Llévate tus cuentas Mega PRO III gratis con tu membresía VIP!
Todos los posts vivos con links de Mega.
Todo el material de Club-HD desbloqueado y sin publicidad.

Obtén más información sobre nuestras Membresías VIP




MEGA.jpg

Tenemos TODO el material de Club-HD disponible por Mega, enlaces 100% activos y online hasta la fecha

Llévate tus cuentas Mega PRO III gratis con tu membresía VIP!
Todos los posts vivos con links de Mega.
Todo el material de Club-HD desbloqueado y sin publicidad.

Obtén más información sobre nuestras Membresías VIP



UPLOADED.NET_BANNER.png

Para ver este contenido oculto, debes dar click en el botón"Like", o cualquiera de las otras reacciones:

Me Gusta Me Gusta, Me Encanta Me Encanta, Jaja Jaja, Wow Wow, Triste Triste, Molesto Molesto

 
Última edición por un moderador:
por lo visto max ya empezo, miembros agarrense jejejeje :dplgar:
 
Bueno amigos... finalmente llego el dia de mi regreso con los posts! ¿Donde habiamos quedado? A si si en los OVAS de Hellsing! una vez que termine de resubir todas las pelis que aquí tengo seguiremos con esa gran serie de anime.

VAMOOOOOOOOOOOOOOOOOOOOOOS!!!!!!!!!!!!!!!!!!!!!!!!!!
 
Wow!! Que gran noticia saber que si vas a subir los ovas de Hellsing... La verdad solo venia para preguntar eso =P

Saludos y se agradece cada uno de sus aportes

:D
 
:sprloc: Max Volvio!!! :LXR: yahoo esperando las ovas de hellsing!!
 
SALUDOS: MASTER MAX. :LXR: WELCOME. :dplgar:

Ya se te extrañaba por estos lados mi amigo. :dplgar:

Este lo descargue del blog anterior pero lo recomiendo
a cualquier amante del METAL , que viva el ROCK!

PD: Me sentí en el estadio de RIVER PLATE junto a AC/DC. :sprloc:

PD2: GRACIAS. :dplgar:
 
Excelente aporte!!!! Graciasssssss. Una pregunta :rzr_: Cual gestor de descarga me recomienzan para descargar de letitbit con cuenta premium?? Un abrazo
 
Volver