Blood and Chocolate (2007) 720p BRRip Dual Latino-Inglés [Subt. Esp] (Fantástico)

Maestro Revolver

Administrador
Registro
9 Ago 2012
Mensajes
3.157
Reacciones (ptje)
55.166


Blood-And-Chocolate.jpg




FichaTecnica.jpg


TÍTULO ORIGINAL: Blood and Chocolate
AÑO: 2007
DURACIÓN: 98 min.
PAÍS: Reino Unido
DIRECTOR: Katja von Garnier
GUIÓN: Ehren Kruger, Christopher Landon (Libro: Annette Curtis Klause)
REPARTO: Agnes Bruckner, Hugh Dancy, Olivier Martinez, Katja Riemann, Bryan Dick, Chris Geere, Tom Harper
PRODUCTORA: Coproducción Reino Unido-USA-Alemania-Rumanía; Berrick Filmproduktion / Blood & Chocolate Productions Ltd. / MGM / Lakeshore Entertainment / Daniel Bobker Productions
GÉNERO: Fantástico. Terror | Hombres lobo
imdb-logo.png
: http://www.imdb.com/title/tt0397044/




Sinopsis.jpg


Ambientada en la Bucarest de nuestros días, trata de una chica de 19 años, Vivian Gandillon, que lleva toda su vida intentando huir de la verdad: que es una mujer lobo. Hace diez años, en unas montañas perdidas de Colorado, una muchacha presenció con impotencia el asesinato de su familia a manos de un grupo de hombres furiosos por el secreto que las víctimas guardaban en la sangre. La joven sobrevivió, adentrándose en el bosque y convirtiéndose en algo que los cazadores nunca hallarían: un lobo. Ahora, a pesar de que vive al otro lado del mundo, Vivian Gandillon (Agnes Bruckner) sigue huyendo. Viviendo en la relativa seguridad de la ciudad de Bucarest, Vivian pasa sus días trabajando en una tienda de chocolates, y sus noches merodeando por los locales nocturnos de la ciudad y eludiendo el acecho de su primo Rafe (Bryan Dick) y su banda de delincuentes, conocida como “Los Cinco”. Pero Vivian sólo se siente verdaderamente libre corriendo por los bosques de las afueras… aunque parece que todo lo que persigue se le escapa continuamente.




Trailer.jpg






Capturas.jpg


1.jpg


2.jpg


3.jpg


4.jpg


5.jpg


6.jpg


La pelicula NO tiene ninguna marca... solo colocamos el nombre de esta web en las capturas




MediaInfo.jpg


Código:
General
Format                                   : Matroska
Format version                           : Version 2
File size                                : 1.67 GiB
Duration                                 : 1h 38mn
Overall bit rate                         : 2 430 Kbps
Movie name                               : www.club-hd.com
Encoded date                             : UTC 2013-11-24 17:53:38
Writing application                      : mkvmerge v5.7.0 ('The Whirlwind') built on Jul  8 2012 20:08:51
Writing library                          : libebml v1.2.3 + libmatroska v1.3.0

Video
ID                                       : 1
Format                                   : AVC
Format/Info                              : Advanced Video Codec
Format profile                           : [email protected]
Format settings, CABAC                   : Yes
Format settings, ReFrames                : 8 frames
Codec ID                                 : V_MPEG4/ISO/AVC
Duration                                 : 1h 38mn
Bit rate                                 : 1 800 Kbps
Width                                    : 1 280 pixels
Height                                   : 544 pixels
Display aspect ratio                     : 2.35:1
Frame rate mode                          : Constant
Frame rate                               : 23.976 fps
Color space                              : YUV
Chroma subsampling                       : 4:2:0
Bit depth                                : 8 bits
Scan type                                : Progressive
Bits/(Pixel*Frame)                       : 0.108
Stream size                              : 1.20 GiB (72%)
Title                                    : www.club-hd.com
Writing library                          : x264 core 98 r1649 c54c47d
Language                                 : English
Default                                  : Yes
Forced                                   : No

Audio #1
ID                                       : 2
Format                                   : AC-3
Format/Info                              : Audio Coding 3
Mode extension                           : CM (complete main)
Format settings, Endianness              : Big
Codec ID                                 : A_AC3
Duration                                 : 1h 38mn
Bit rate mode                            : Constant
Bit rate                                 : 192 Kbps
Channel(s)                               : 2 channels
Channel positions                        : Front: L R
Sampling rate                            : 48.0 KHz
Bit depth                                : 16 bits
Compression mode                         : Lossy
Stream size                              : 135 MiB (8%)
Language                                 : Spanish
Default                                  : Yes
Forced                                   : No

Audio #2
ID                                       : 3
Format                                   : AC-3
Format/Info                              : Audio Coding 3
Mode extension                           : CM (complete main)
Format settings, Endianness              : Big
Codec ID                                 : A_AC3
Duration                                 : 1h 38mn
Bit rate mode                            : Constant
Bit rate                                 : 448 Kbps
Channel(s)                               : 6 channels
Channel positions                        : Front: L C R, Side: L R, LFE
Sampling rate                            : 48.0 KHz
Bit depth                                : 16 bits
Compression mode                         : Lossy
Stream size                              : 315 MiB (18%)
Language                                 : English
Default                                  : No
Forced                                   : No

Text
ID                                       : 4
Format                                   : UTF-8
Codec ID                                 : S_TEXT/UTF8
Codec ID/Info                            : UTF-8 Plain Text
Language                                 : Spanish
Default                                  : No
Forced                                   : No




Descarga.jpg



MEGA.jpg

Tenemos TODO el material de Club-HD disponible por Mega, enlaces 100% activos y online hasta la fecha

Llévate tus cuentas Mega PRO III gratis con tu membresía VIP!
Todos los posts vivos con links de Mega.
Todo el material de Club-HD desbloqueado y sin publicidad.

Obtén más información sobre nuestras Membresías VIP



UPLOADED_BANNER.png

Para ver este contenido oculto, debes dar click en el botón"Like", o cualquiera de las otras reacciones:

Me Gusta Me Gusta, Me Encanta Me Encanta, Jaja Jaja, Wow Wow, Triste Triste, Molesto Molesto

 
Última edición por un moderador:
es una lastima que desde crepúsculo ya los hombres lobos perdieron su forma humanoide y con mas apariencia brusca y temerosa y ahora todos son perros ! igual la vere para ver que tal ,es solo que no estoy contento con tanta pelicula de vampiros y lobos y ahora todos son hombres o mujeres transformados en perros, una película de lobos va conmigo así gracias master
 
es una lastima que desde crepúsculo ya los hombres lobos perdieron su forma humanoide y con mas apariencia brusca y temerosa y ahora todos son perros ! igual la vere para ver que tal ,es solo que no estoy contento con tanta pelicula de vampiros y lobos y ahora todos son hombres o mujeres transformados en perros, una película de lobos va conmigo así gracias master

La Saga de Twilight se estreno en el 2008 DoomsDay, esta es anterior....... Y Mi Pedido del Mes:Dque mi querido my Bosss pude postear para mi Pl4yb0y
 
Volver