Cirque du Soleil: Worlds Away (2012) 3D H-SBS 1080p BDRip Dual Latino-Inglés [Subt. Esp] (Aventuras. Fantástico)

Maestro Revolver

Well-known member
Miembro del Staff
Administrador
Registro
9 Ago 2012
Mensajes
3.569
Reacciones
59.471
Puntos
113

Reputation:









TÍTULO ORIGINAL: Cirque du Soleil: Worlds Away
AÑO: 2012
DURACIÓN: 91 min.
PAÍS: USA
DIRECTOR: Andrew Adamson
GUIÓN: Andrew Adamson
REPARTO: Matt Gillanders, Dallas Barnett, Jason Berrent, Lutz Halbhubner, Sophia Elisabeth
PRODUCTORA: Cirque du Soleil / Reel FX Creative Studios / Strange Weather Films
GÉNERO: Aventuras. Fantástico. Romance | Circo. 3-D
: www.imdb.com/title/tt1792647/






Dos jóvenes enamorados, separados por avatares del destino, tendrán que viajar a través de los mundos de ensueño del Cirque du Soleil para volver a encontrarse. Film escrito y dirigido por Andrew Adamson y producido por James Cameron. La película en 3D incluye algunas de las actuaciones artísticas y acrobáticas más elaboradas de Cirque du Soleil.
























La pelicula NO tiene ninguna marca... solo colocamos el nombre de esta web en las capturas






Código:
General
Format                                   : Matroska
Format version                           : Version 3 / Version 2
File size                                : 9.57 GiB
Duration                                 : 1h 31mn
Overall bit rate                         : 15.0 Mbps
Movie name                               : www.club-hd.com
Encoded date                             : UTC 2013-03-08 13:34:47
Writing application                      : mkvmerge v5.7.0 ('The Whirlwind') built on Jul  8 2012 20:08:51
Writing library                          : libebml v1.2.3 + libmatroska v1.3.0

Video
ID                                       : 1
Format                                   : AVC
Format/Info                              : Advanced Video Codec
Format profile                           : High@L4.1
MultiView_Count                          : 2
MultiView_Layout                         : Side by Side (left eye first)
Format settings, CABAC                   : Yes
Format settings, ReFrames                : 4 frames
Codec ID                                 : V_MPEG4/ISO/AVC
Duration                                 : 1h 31mn
Bit rate                                 : 11.9 Mbps
Width                                    : 1 920 pixels
Height                                   : 1 080 pixels
Display aspect ratio                     : 16:9
Frame rate mode                          : Constant
Frame rate                               : 23.976 fps
Color space                              : YUV
Chroma subsampling                       : 4:2:0
Bit depth                                : 8 bits
Scan type                                : Progressive
Bits/(Pixel*Frame)                       : 0.240
Stream size                              : 7.60 GiB (79%)
Title                                    : www.club-hd.com
Writing library                          : x264 core 130 r2273 b3065e6
Language                                 : English
Default                                  : Yes
Forced                                   : No

Audio #1
ID                                       : 2
Format                                   : AC-3
Format/Info                              : Audio Coding 3
Mode extension                           : CM (complete main)
Format settings, Endianness              : Big
Codec ID                                 : A_AC3
Duration                                 : 1h 31mn
Bit rate mode                            : Constant
Bit rate                                 : 640 Kbps
Channel(s)                               : 6 channels
Channel positions                        : Front: L C R, Side: L R, LFE
Sampling rate                            : 48.0 KHz
Bit depth                                : 16 bits
Compression mode                         : Lossy
Stream size                              : 418 MiB (4%)
Title                                    : www.club-hd.com  >>  Latino AC3 5.1
Language                                 : Spanish
Default                                  : Yes
Forced                                   : No

Audio #2
ID                                       : 3
Format                                   : AC-3
Format/Info                              : Audio Coding 3
Mode extension                           : CM (complete main)
Format settings, Endianness              : Big
Codec ID                                 : A_AC3
Duration                                 : 1h 31mn
Bit rate mode                            : Constant
Bit rate                                 : 640 Kbps
Channel(s)                               : 6 channels
Channel positions                        : Front: L C R, Side: L R, LFE
Sampling rate                            : 48.0 KHz
Bit depth                                : 16 bits
Compression mode                         : Lossy
Stream size                              : 418 MiB (4%)
Title                                    : www.club-hd.com  >>  Latino AC3 5.1
Language                                 : English
Default                                  : No
Forced                                   : No

Audio #3
ID                                       : 4
Format                                   : DTS
Format/Info                              : Digital Theater Systems
Codec ID                                 : A_DTS
Duration                                 : 1h 31mn
Bit rate mode                            : Constant
Bit rate                                 : 1 510 Kbps
Channel(s)                               : 6 channels
Channel positions                        : Front: L C R, Side: L R, LFE
Sampling rate                            : 48.0 KHz
Bit depth                                : 24 bits
Compression mode                         : Lossy
Delay relative to video                  : 11ms
Stream size                              : 985 MiB (10%)
Title                                    : www.club-hd.com  >>  Ingles DTS 5.1
Language                                 : English
Default                                  : No
Forced                                   : No

Text
ID                                       : 5
Format                                   : UTF-8
Codec ID                                 : S_TEXT/UTF8
Codec ID/Info                            : UTF-8 Plain Text
Language                                 : Spanish
Default                                  : No
Forced                                   : No

Menu
00:00:00.000                             : en:00:00:00.000
00:07:01.921                             : en:00:07:01.921
00:14:47.678                             : en:00:14:47.678
00:18:59.138                             : en:00:18:59.138
00:28:03.473                             : en:00:28:03.473
00:37:52.187                             : en:00:37:52.187
00:44:06.602                             : en:00:44:06.602
00:46:47.263                             : en:00:46:47.263
00:51:06.563                             : en:00:51:06.563
00:55:44.758                             : en:00:55:44.758
00:58:59.953                             : en:00:58:59.953
01:03:59.836                             : en:01:03:59.836
01:11:15.229                             : en:01:11:15.229
01:20:49.845                             : en:01:20:49.845










Enlaces de Mega y Fireload solo disponibles para Miembros VIP

Compra tu Membresía VIP y apoya a Club-HD!

ATENCIÓN! Tenemos TODO el material de Club-HD disponible por Mega y Fireload, enlaces 100% activos y online hasta la fecha

Llévate tus cuentas Mega PRO II gratis con tu membresía VIP!
Todos los posts vivos con links de Mega y Fireload.
Todo el material de Club-HD desbloqueado y sin publicidad.

Click Aquí para más información.




Enlaces de Mega y Fireload solo disponibles para Miembros VIP

Compra tu Membresía VIP y apoya a Club-HD!

ATENCIÓN! Tenemos TODO el material de Club-HD disponible por Mega y Fireload, enlaces 100% activos y online hasta la fecha

Llévate tus cuentas Mega PRO II gratis con tu membresía VIP!
Todos los posts vivos con links de Mega y Fireload.
Todo el material de Club-HD desbloqueado y sin publicidad.

Click Aquí para más información.



Para ver este contenido oculto, debes dar click en una de las siguientes reacciones : Like Like, Love Love, Haha Haha, Wow Wow, Sad Sad, Angry Angry

 
Última edición:

carlos610

Well-known member
Registro
28 Ago 2012
Mensajes
1.777
Reacciones
961
Puntos
113
Edad
38
Ubicación
angol, araucania

Reputation:

gracias, gracias, gracias, por subirla en 3d la e estado esperando en esta version gracias revolver21 por el gran esfuerzo que realizas en el club hd saludos
 

sunker-123

New member
Registro
27 Ago 2012
Mensajes
2.433
Reacciones
200
Puntos
0
Edad
31

Reputation:

Muchas Gracias me la llevo, sin duda para mi colección...:dplgar:
 

Gallox

Member
Registro
16 Sep 2012
Mensajes
662
Reacciones
20
Puntos
18

Reputation:

Por el tipo de pelicula, esta solo la bajaría en 3d y akista, gracias, descargandola.
 

Ezze

Well-known member
Miembro del Staff
Súper Moderador
Registro
28 Ago 2012
Mensajes
1.664
Reacciones
1.795
Puntos
113
Ubicación
En la Torre de Observación

Reputation:

Vale la pena tenerla en 3D yess Muy buena película.... :dplgar: Muchas gracias Revo :aplausos: Saludos
 

Usuarios Que Están Viendo Este Tema (Total: 1, Miembros: 0, Invitados: 1)

Arriba